<?xml version="1.0" standalone="no"?>
<!DOCTYPE svg PUBLIC "-//W3C//DTD SVG 1.1//EN" "http://www.w3.org/Graphics/SVG/1.1/DTD/svg11.dtd">
<svg xmlns="http://www.w3.org/2000/svg">
<metadata>Copyright (C) 2020 by original authors @ fontello.com</metadata>
<defs>
<font id="gma-et-icons" horiz-adv-x="1000" >
<font-face font-family="gma-et-icons" font-weight="400" font-stretch="normal" units-per-em="1000" ascent="850" descent="-150" />
<missing-glyph horiz-adv-x="1000" />
<glyph glyph-name="glyph-2" unicode="&#xe800;" d="M531 725c-17 0-31-14-31-31l0-612-134 134c-12 12-32 12-44 0-12-12-12-32 0-44l187-188c0 0 0 0 0 0 3-3 7-5 10-7 8-3 17-3 24 0 4 2 7 4 10 7l188 188c12 12 12 32 0 44-12 12-32 12-44 0l-134-134 0 612c0 17-14 31-32 31z" horiz-adv-x="1000" />

<glyph glyph-name="glyph-3" unicode="&#xe801;" d="M125 381c0-4 1-8 2-12 2-3 4-7 7-9 0-1 0-1 0-1l188-187c12-13 32-13 44 0 12 12 12 32 0 44l-134 134 612 0c17 0 31 14 31 31 0 18-14 32-31 32l-612 0 134 134c12 12 12 32 0 44-12 12-32 12-44 0l-188-188c0 0 0 0 0 0-3-3-5-6-7-10-1-4-2-8-2-12l0 0c0 0 0 0 0 0z" horiz-adv-x="1000" />

<glyph glyph-name="glyph-4" unicode="&#xe802;" d="M125 381c0-17 14-31 31-31l612 0-134-134c-12-12-12-32 0-44 12-12 32-12 44 0l188 187c3 3 5 7 7 10 1 4 2 8 2 12 0 0 0 0 0 0l0 0c0 4-1 8-2 12-2 4-4 7-7 10l-188 188c-12 12-32 12-44 0-12-12-12-32 0-44l134-134-612 0c-17 0-31-14-31-32z" horiz-adv-x="1000" />

<glyph glyph-name="glyph-5" unicode="&#xe803;" d="M125 381c0-17 14-31 31-31s32 14 32 31l0 237 634-634c12-12 32-12 44 0 12 12 12 32 0 44l-634 635 237 0c17 0 31 14 31 31 0 17-14 31-31 31l-313 0c-4 0-8-1-12-2-3-2-7-4-10-7 0 0 0 0 0 0 0 0 0 0 0 0-3-3-5-7-7-10-1-4-2-8-2-12l0 0 0-313z" horiz-adv-x="1000" />

<glyph glyph-name="glyph-1" unicode="&#xe804;" d="M531-25c18 0 32 14 32 31l0 612 134-134c12-12 32-12 44 0 12 12 12 32 0 44l-188 188c-3 3-6 5-10 7-7 3-16 3-24 0-3-2-7-4-10-7 0 0 0 0 0 0l-187-188c-13-12-13-32 0-44 12-12 32-12 44 0l134 134 0-612c0-17 14-31 31-31z" horiz-adv-x="1000" />

<glyph glyph-name="glyph-6" unicode="&#xe805;" d="M134-16c12-12 32-12 44 0l635 634 0-237c0-17 14-31 31-31s31 14 31 31l0 313 0 0c0 4-1 8-2 12-4 7-10 13-17 17-4 1-8 2-12 2l-313 0c-17 0-31-14-31-31 0-17 14-31 31-31l237 0-634-635c-12-12-12-32 0-44z" horiz-adv-x="1000" />

<glyph glyph-name="glyph-7" unicode="&#xe806;" d="M844 350c-17 0-31-14-31-31l0-237-635 634c-12 12-32 12-44 0-12-12-12-32 0-44l634-634-237 0c-17 0-31-14-31-32 0-17 14-31 31-31l313 0c4 0 8 1 12 2 7 4 13 10 17 17 1 4 2 8 2 12 0 0 0 0 0 0l0 313c0 17-14 31-31 31z" horiz-adv-x="1000" />

<glyph glyph-name="glyph-8" unicode="&#xe807;" d="M156 350c-17 0-31-14-31-31l0-313c0 0 0 0 0 0 0-4 1-8 2-12 2-3 4-7 7-10 0 0 0 0 0 0 0 0 0 0 0 0 3-3 7-5 10-7 4-1 8-2 12-2l313 0c17 0 31 14 31 31 0 18-14 32-31 32l-237 0 634 634c12 12 12 32 0 44-12 12-32 12-44 0l-634-634 0 237c0 17-14 31-32 31z" horiz-adv-x="1000" />

<glyph glyph-name="glyph-9" unicode="&#xe808;" d="M634 672c12-13 32-13 44 0 13 12 13 32 0 44l-125 125c-3 3-6 5-10 7-7 3-16 3-24 0-3-2-7-4-10-7 0 0 0 0 0 0l-125-125c-12-12-12-32 0-44 12-12 32-12 44 0l72 71 0-786-72 71c-12 13-32 13-44 0-12-12-12-32 0-44l125-125c0 0 0 0 0 0 3-3 7-5 10-7 8-3 17-3 24 0 4 2 7 4 10 7l125 125c13 12 13 32 0 44-12 13-32 13-44 0l-71-71 0 786 71-71z" horiz-adv-x="1000" />

<glyph glyph-name="glyph-10" unicode="&#xe809;" d="M571-141c6-6 14-9 22-9 9 0 17 3 23 9l120 120c12 12 12 32 0 44s-32 13-44 0l-67-66 0 549c0 17-14 31-31 31s-31-14-31-31l0-550-72 72c-13 12-32 12-45 0-12-12-12-32 0-44l125-125z m-165 303c18 0 32 14 32 31l0 550 72-72c12-12 32-12 44 0 12 13 12 32 0 45l-125 125c-6 6-14 9-22 9-8 0-16-3-23-9l-120-121c-12-12-12-32 0-44 12-12 32-12 44 0l67 67 0-550c0-17 14-31 31-31z" horiz-adv-x="1000" />

<glyph glyph-name="glyph-11" unicode="&#xe80a;" d="M174 114c12 12 12 32 0 44l-67 67 549 0c18 0 32 14 32 31 0 18-14 32-32 32l-549 0 71 71c12 12 12 32 0 44-12 13-32 13-44 0l-125-125c-6-6-9-14-9-22 0-8 3-16 9-22l121-120c12-13 32-13 44 0z m817 351l-120 121c-13 12-32 12-45 0s-12-32 0-44l67-68-549 0c-17 0-31-14-31-31s14-31 31-31l549 0-71-72c-12-12-12-32 0-44 12-12 32-12 44 0l125 125c6 6 9 14 9 22 0 8-3 16-9 22z" horiz-adv-x="1000" />

<glyph glyph-name="glyph-12" unicode="&#xe80b;" d="M998 331c-2 4-4 7-7 10l-125 125c-12 12-32 12-44 0-13-12-13-32 0-44l71-72-786 0 71 72c13 12 13 32 0 44-12 12-32 12-44 0l-125-125c0 0 0 0 0 0-3-3-5-7-7-10-1-4-2-8-2-12l0 0c0 0 0 0 0 0 0-4 1-8 2-12 2-4 4-7 7-10 0 0 0 0 0 0l125-125c12-13 32-13 44 0 13 12 13 32 0 44l-71 72 786 0-71-72c-12-12-12-32 0-44 12-12 32-12 44 0l125 125c3 3 5 6 7 10 1 4 2 8 2 12 0 0 0 0 0 0l0 0c0 4-1 8-2 12z" horiz-adv-x="1000" />

<glyph glyph-name="glyph-13" unicode="&#xe80c;" d="M125 381c0-17 14-31 31-31s32 14 32 31l0 237 580-580-237 0c-17 0-31-14-31-32 0-17 14-31 31-31l313 0c4 0 8 1 12 2 7 4 13 10 17 17 1 4 2 8 2 12 0 0 0 0 0 0l0 313c0 17-14 31-31 31s-31-14-31-31l0-237-581 581 237 0c17 0 31 14 31 31 0 17-14 31-31 31l-313 0c-4 0-8-1-12-2-3-2-7-4-10-7 0 0 0 0 0 0 0 0 0 0 0 0-3-3-5-7-7-10-1-4-2-8-2-12l0 0 0-313z" horiz-adv-x="1000" />

<glyph glyph-name="glyph-14" unicode="&#xe80d;" d="M156 350c-17 0-31-14-31-31l0-313c0 0 0 0 0 0 0-4 1-8 2-12 2-3 4-7 7-10 0 0 0 0 0 0 0 0 0 0 0 0 3-3 7-5 10-7 4-1 8-2 12-2l313 0c17 0 31 14 31 31 0 18-14 32-31 32l-237 0 581 580 0-237c0-17 14-31 31-31s31 14 31 31l0 313 0 0c0 4-1 8-2 12-4 7-10 13-17 17-4 1-8 2-12 2l-313 0c-17 0-31-14-31-31 0-17 14-31 31-31l237 0-580-581 0 237c0 17-14 31-32 31z" horiz-adv-x="1000" />

<glyph glyph-name="glyph-15" unicode="&#xe80e;" d="M928 778c-12 13-32 13-44 0l-259-259 0 175c0 17-14 31-31 31s-31-14-31-31l0-250c0 0 0 0 0 0 0-4 0-8 2-12 1-4 4-7 6-10 1 0 1 0 1 0 0 0 0 0 0 0 3-3 6-6 10-7 4-2 8-2 12-2l250 0c17 0 31 14 31 31 0 17-14 31-31 31l-175 0 259 259c13 12 13 32 0 44z m-856-856c12-13 32-13 44 0l259 259 0-175c0-17 14-31 31-31s32 14 32 31l0 250 0 0c0 4-1 8-3 12-3 8-9 14-17 17-4 2-8 3-12 3l-250 0c-17 0-31-14-31-32 0-17 14-31 31-31l175 0-259-259c-13-12-13-32 0-44z" horiz-adv-x="1000" />

<glyph glyph-name="glyph-16" unicode="&#xe80f;" d="M935 768c-3 8-9 14-17 17-4 2-8 3-12 3l-250 0c-17 0-31-14-31-32 0-17 14-31 31-31l175 0-259-259c-13-12-13-32 0-44 12-12 32-12 44 0l259 259 0-175c0-17 14-31 31-31s32 14 32 31l0 250 0 0c0 4-1 8-3 12z m-841-543c-17 0-31-14-31-31l0-250c0 0 0 0 0 0 0-4 0-8 2-12 1-4 4-7 6-10 1 0 1 0 1 0 0 0 0 0 0-1 3-2 6-5 10-6 4-2 8-3 12-3l250 0c17 0 31 14 31 32 0 17-14 31-31 31l-175 0 259 259c13 12 13 32 0 44-12 13-32 13-44 0l-259-259 0 175c0 17-14 31-31 31z" horiz-adv-x="1000" />

<glyph glyph-name="glyph-17" unicode="&#xe810;" d="M998 331c-2 4-4 7-7 10l-125 125c-12 12-32 12-44 0-13-12-13-32 0-44l71-72-330 0 0 331 71-72c12-12 32-12 44 0 13 12 13 32 0 44l-125 125c0 0 0 1 0 1-3 2-6 5-10 6-4 2-8 3-12 3 0 0 0 0 0 0-4 0-8-1-12-3-3-1-7-4-9-6-1 0-1-1-1-1l-125-125c-12-12-12-32 0-44 12-12 32-12 44 0l72 72 0-331-331 0 72 72c12 12 12 32 0 44-12 12-32 12-44 0l-125-125c0 0 0 0-1 0-2-3-5-7-6-10-2-4-2-8-2-12 0 0 0 0 0 0 0-4 0-8 2-12 1-4 4-7 6-10 1 0 1 0 1 0l125-125c12-13 32-13 44 0 12 12 12 32 0 44l-72 72 331 0 0-331-72 71c-12 13-32 13-44 0-12-12-12-32 0-44l125-125c3-3 7-5 10-7 4-1 8-2 12-2 0 0 0 0 0 0 4 0 8 1 12 2 4 2 7 4 10 7l125 125c13 12 13 32 0 44-12 13-32 13-44 0l-71-71 0 331 330 0-71-72c-12-12-12-32 0-44 12-12 32-12 44 0l125 125c3 3 5 6 7 10 1 4 2 8 2 12 0 0 0 0 0 0 0 4-1 8-2 12z" horiz-adv-x="1000" />

<glyph glyph-name="glyph-18" unicode="&#xe811;" d="M351 219l180 180 181-180c12-12 32-12 44 0 12 12 12 32 0 44l-203 203c-6 6-14 9-22 9-8 0-16-3-22-9l-203-203c-12-12-12-32 0-44 13-12 32-12 45 0z" horiz-adv-x="1000" />

<glyph glyph-name="glyph-19" unicode="&#xe812;" d="M712 419l-181-181-180 181c-13 12-32 12-45 0-12-12-12-32 0-44l203-203c6-6 14-9 22-9 8 0 16 3 22 9l203 203c12 12 12 32 0 44-12 12-32 12-44 0z" horiz-adv-x="1000" />

<glyph glyph-name="glyph-20" unicode="&#xe813;" d="M384 297l203-203c12-12 32-12 44 0 12 12 12 32 0 44l-180 181 180 180c12 13 12 32 0 45-12 12-32 12-44 0l-203-203c-6-6-9-14-9-22 0-8 3-16 9-22z" horiz-adv-x="1000" />

<glyph glyph-name="glyph-21" unicode="&#xe814;" d="M431 94c12-12 32-12 44 0l203 203c6 6 9 14 9 22 0 8-3 16-9 22l-203 203c-12 12-32 12-44 0-12-13-12-32 0-45l181-180-181-181c-12-12-12-32 0-44z" horiz-adv-x="1000" />

<glyph glyph-name="glyph-22" unicode="&#xe815;" d="M733 406l-209 185c-6 6-15 9-23 9-8 0-16-3-22-9l-210-185c-12-12-12-32 0-45 13-12 33-12 45 0l187 166 187-166c13-12 33-12 45 0 12 13 12 33 0 45z m-209-39c-6 6-15 9-23 9-8 0-16-3-22-9l-210-185c-12-12-12-32 0-45 13-12 33-12 45 0l187 166 187-166c13-12 33-12 45 0 12 13 12 33 0 45l-209 185z" horiz-adv-x="1000" />

<glyph glyph-name="glyph-23" unicode="&#xe816;" d="M686 339l-187-166-187 166c-13 12-33 12-45 0-12-13-12-33 0-45l209-185c7-6 15-9 23-9 8 0 16 3 23 9l209 185c12 12 12 32 0 45s-33 12-45 0z m45 224c-13 12-33 12-45 0l-187-166-187 166c-13 12-33 12-45 0-12-12-12-32 0-45l209-185c6-6 15-9 23-9 8 0 16 3 22 9l210 185c12 13 12 32 0 45z" horiz-adv-x="1000" />

<glyph glyph-name="glyph-24" unicode="&#xe817;" d="M259 329l185-210c12-12 32-12 45 0s12 33 0 45l-166 187 166 187c12 13 12 33 0 45s-33 12-45 0l-185-209c-6-6-9-15-9-23 0-8 3-16 9-22z m454 254c-12 12-32 12-45 0l-185-209c-6-6-9-15-9-23 0-8 3-16 9-22l185-210c13-12 32-12 45 0s12 33 0 45l-166 187 166 187c12 13 12 33 0 45z" horiz-adv-x="1000" />

<glyph glyph-name="glyph-25" unicode="&#xe818;" d="M741 372l-185 209c-12 12-32 12-45 0s-12-33 0-45l166-187-166-187c-12-13-12-33 0-45s33-12 45 0l185 209c6 7 9 15 9 23 0 8-3 16-9 23z m-454-255c13-12 32-12 45 0l185 209c6 6 9 15 9 23 0 8-3 16-9 22l-185 210c-12 12-32 12-45 0s-12-33 0-45l166-187-166-187c-12-13-12-33 0-45z" horiz-adv-x="1000" />

<glyph glyph-name="glyph-26" unicode="&#xe819;" d="M553 466c-6 6-14 9-22 9-8 0-16-3-22-9l-203-203c-12-12-12-32 0-44 13-12 32-12 45 0l180 180 181-180c12-12 32-12 44 0 12 12 12 32 0 44l-203 203z m-20 317c-257 0-466-209-466-466s209-467 466-467 467 209 467 467-209 466-467 466z m0-871c-223 0-404 182-404 405s181 404 404 404 405-181 405-404-182-405-405-405z" horiz-adv-x="1000" />

<glyph glyph-name="glyph-27" unicode="&#xe81a;" d="M712 419l-181-181-180 181c-13 12-32 12-45 0-12-12-12-32 0-44l203-203c6-6 14-9 22-9 8 0 16 3 22 9l203 203c12 12 12 32 0 44-12 12-32 12-44 0z m-178 364c-258 0-467-209-467-466 0-258 209-467 467-467 257 0 466 209 466 467 0 257-209 466-466 466z m0-871c-223 0-404 182-404 405 0 222 181 404 404 404 222 0 404-182 404-404 0-223-182-405-404-405z" horiz-adv-x="1000" />

<glyph glyph-name="glyph-28" unicode="&#xe81b;" d="M631 544c-12 12-32 12-44 0l-203-203c-6-6-9-14-9-22 0-8 3-16 9-22l203-203c12-12 32-12 44 0 12 12 12 32 0 44l-180 181 180 180c12 13 12 32 0 45z m-100 244c-259 0-468-210-468-469s209-469 468-469 469 210 469 469-210 469-469 469z m0-876c-224 0-406 183-406 407s182 406 406 406 407-182 407-406-183-407-407-407z" horiz-adv-x="1000" />

<glyph glyph-name="glyph-29" unicode="&#xe81c;" d="M678 341l-203 203c-12 12-32 12-44 0-12-13-12-32 0-45l181-180-181-181c-12-12-12-32 0-44 12-12 32-12 44 0l203 203c6 6 9 14 9 22 0 8-3 16-9 22z m-144 442c-258 0-467-209-467-466s209-467 467-467 466 209 466 467-209 466-466 466z m0-871c-223 0-404 182-404 405s181 404 404 404 404-182 404-404-182-405-404-405z" horiz-adv-x="1000" />

<glyph glyph-name="glyph-30" unicode="&#xe81d;" d="M555 560c-6 6-14 9-23 9-8 0-16-3-22-9l-209-185c-13-13-13-33 0-45 12-12 32-12 44 0l187 166 188-166c12-12 32-12 44 0 12 12 12 32 0 45l-209 185z m0-225c-6 7-14 10-23 10-8 0-16-3-22-10l-209-184c-13-13-13-33 0-45 12-12 32-12 44 0l187 166 188-166c12-12 32-12 44 0 12 12 12 32 0 45l-209 184z m-21 448c-258 0-467-209-467-466s209-467 467-467 466 209 466 467-209 466-466 466z m0-871c-223 0-404 182-404 405s181 404 404 404 404-182 404-404-182-405-404-405z" horiz-adv-x="1000" />

<glyph glyph-name="glyph-31" unicode="&#xe81e;" d="M717 307l-187-165-187 165c-12 13-32 13-45 0-12-12-12-32 0-44l210-185c6-6 14-9 22-9 8 0 17 3 23 9l209 185c12 12 12 32 0 44s-32 13-45 0z m0 225l-187-166-187 166c-12 12-32 12-45 0-12-13-12-33 0-45l209-185c7-6 15-9 23-9 8 0 17 3 23 9l209 185c12 12 12 32 0 45s-32 12-45 0z m-183 251c-258 0-467-209-467-466s209-467 467-467 466 209 466 467-209 466-466 466z m0-871c-223 0-404 182-404 405s181 404 404 404 404-182 404-404-182-405-404-405z" horiz-adv-x="1000" />

<glyph glyph-name="glyph-32" unicode="&#xe81f;" d="M354 320l166 187c12 12 12 32 0 45s-32 12-45 0l-185-209c-6-7-9-15-9-23 0-8 3-16 9-23l185-209c13-12 33-12 45 0s12 32 0 45l-166 187z m390 232c-12 12-32 12-44 0l-185-209c-7-7-10-15-10-23 0-8 3-16 10-23l185-209c12-12 32-12 44 0s12 32 0 45l-166 187 166 187c12 12 12 32 0 45z m-213 236c-259 0-468-210-468-469s209-469 468-469 469 210 469 469-210 469-469 469z m0-876c-224 0-406 183-406 407s182 406 406 406 407-182 407-406-183-407-407-407z" horiz-adv-x="1000" />

<glyph glyph-name="glyph-33" unicode="&#xe820;" d="M772 340l-185 209c-12 13-32 13-44 0s-13-32 0-44l165-187-165-188c-13-12-13-32 0-44s32-12 44 0l185 209c6 6 9 14 9 23 0 8-3 16-9 22z m-215-22c0 8-3 16-9 22l-185 209c-12 13-32 13-44 0s-13-32 0-44l165-187-165-188c-13-12-13-32 0-44s32-12 44 0l185 209c6 6 9 14 9 23z m-26 470c-259 0-468-210-468-469s209-469 468-469 469 210 469 469-210 469-469 469z m0-876c-224 0-406 183-406 407s182 406 406 406 407-182 407-406-183-407-407-407z" horiz-adv-x="1000" />

<glyph glyph-name="glyph-34" unicode="&#xe821;" d="M281 225l437 0c9 0 17 4 22 11l0 0c12 13 12 35 0 49l-218 242c-13 14-32 14-44 0-1 0-1-1-1-1l-218-241c-13-14-13-36 0-49 0 0 0 0 0 0 6-7 13-11 22-11z" horiz-adv-x="1000" />

<glyph glyph-name="glyph-35" unicode="&#xe822;" d="M521 235c1 1 1 1 1 1l218 242c12 13 12 35 0 49 0 0 0 0 0 0-6 6-14 11-22 11l-437 0c-9 0-17-5-22-11l0 0c-13-14-13-36 0-49l218-243c12-13 32-13 44 0z" horiz-adv-x="1000" />

<glyph glyph-name="glyph-36" unicode="&#xe823;" d="M565 592l-242-219c-14-12-14-32 0-44 0-1 1-1 1-1l241-218c14-12 36-12 49 0 0 0 0 0 0 0 7 6 11 14 11 22l0 437c0 9-4 17-11 22l0 0c-13 13-35 13-49 1z" horiz-adv-x="1000" />

<glyph glyph-name="glyph-37" unicode="&#xe824;" d="M434 109l239 219c14 12 14 32 0 44 0 0-1 0-1 1l-238 219c-13 12-35 12-48 0 0-1 0-1-1-1-6-6-10-13-10-22l0-438c0-9 4-17 11-22l0 0c13-13 35-13 48 0z" horiz-adv-x="1000" />

<glyph glyph-name="glyph-38" unicode="&#xe825;" d="M531 788c-259 0-468-210-468-469s209-469 468-469 469 210 469 469-210 469-469 469z m0-876c-224 0-406 183-406 407s182 406 406 406 407-182 407-406-183-407-407-407z m19 553c-11 13-28 13-39 0 0-1 0-1 0-1l-191-241c-11-14-11-36 0-50 0 0 0 0 0 0 5-6 12-10 20-10l382 0c7 0 14 4 19 11l0-1c11 14 11 36 0 50l-191 242z" horiz-adv-x="1000" />

<glyph glyph-name="glyph-39" unicode="&#xe826;" d="M531 788c-259 0-468-210-468-469s209-469 468-469 469 210 469 469-210 469-469 469z m0-876c-224 0-406 183-406 407s182 406 406 406 407-182 407-406-183-407-407-407z m211 490c-5 6-12 11-20 11l-382 0c-7 0-14-5-19-11l0 0c-11-14-11-36 0-49l191-243c11-13 28-13 38 0 1 1 1 1 1 1l191 242c11 13 11 35 0 49 0 0 0 0 0 0z" horiz-adv-x="1000" />

<glyph glyph-name="glyph-40" unicode="&#xe827;" d="M531 788c-259 0-468-210-468-469s209-469 468-469 469 210 469 469-210 469-469 469z m0-876c-224 0-406 183-406 407s182 406 406 406 407-182 407-406-183-407-407-407z m83 618c-13 11-35 11-49 0l-242-191c-14-11-14-28 0-39 0 0 1 0 1 0l241-191c14-11 36-11 49 0 0 0 0 0 0 0 7 5 11 12 11 19l0 382c0 8-4 15-11 20l0 0z" horiz-adv-x="1000" />

<glyph glyph-name="glyph-41" unicode="&#xe828;" d="M531 788c-259 0-468-210-468-469s209-469 468-469 469 210 469 469-210 469-469 469z m0-876c-224 0-406 183-406 407s182 406 406 406 407-182 407-406-183-407-407-407z m208 427l-241 191c-14 11-36 11-50 0 0 0 0 0 0 0-6-5-10-12-10-20l0-382c0-7 4-14 11-19l-1 0c14-11 36-11 50 0l242 191c13 11 13 28 0 39-1 0-1 0-1 0z" horiz-adv-x="1000" />

<glyph glyph-name="glyph-42" unicode="&#xe829;" d="M134 359l188-187c12-13 32-13 44 0 12 12 12 32 0 44l-134 134 456 0c125 0 187-115 187-219 0-17 14-31 31-31s32 14 32 31c0 138-63 282-250 282l-456 0 134 134c12 12 12 32 0 44-12 12-32 12-44 0l-188-188c-12-12-12-32 0-44z" horiz-adv-x="1000" />

<glyph glyph-name="glyph-43" unicode="&#xe82a;" d="M281 288l500 0c18 0 32 14 32 31 0 17-14 31-32 31l-500 0c-17 0-31-14-31-31 0-17 14-31 31-31z" horiz-adv-x="1000" />

<glyph glyph-name="glyph-44" unicode="&#xe82b;" d="M281 288l219 0 0-219c0-17 14-31 31-31s32 14 32 31l0 219 218 0c18 0 32 14 32 31 0 17-14 31-32 31l-218 0 0 219c0 17-14 31-32 31s-31-14-31-31l0-219-219 0c-17 0-31-14-31-31 0-17 14-31 31-31z" horiz-adv-x="1000" />

<glyph glyph-name="glyph-45" unicode="&#xe82c;" d="M314 102c12-13 32-13 44 0l173 173 173-173c12-13 32-13 44 0 13 12 13 32 0 44l-173 173 173 173c13 12 13 32 0 44-12 12-32 12-44 0l-173-173-173 173c-12 12-32 12-44 0-12-12-12-32 0-44l173-173-173-173c-12-12-12-32 0-44z" horiz-adv-x="1000" />

<glyph glyph-name="glyph-46" unicode="&#xe82d;" d="M431 50c1-1 2-2 3-3 2-1 4-1 6-2 3-1 5-2 7-3 3-1 5-1 8-1 3-1 7-1 10 0 2 0 3 0 4 1 5 1 9 3 13 5 0 0 1 1 2 1 2 2 5 3 7 6 2 1 2 4 4 6 0 0 0 0 0 0l372 597c14 20 8 47-12 60s-48 8-61-12l-344-552-190 185c-18 17-46 16-62-2-16-18-15-46 2-62l229-223c1 0 1 0 2-1z" horiz-adv-x="1000" />

<glyph glyph-name="glyph-47" unicode="&#xe82e;" d="M531 788c-259 0-468-210-468-469s209-469 468-469 469 210 469 469-210 469-469 469z m0-876c-224 0-406 183-406 407s182 406 406 406 407-182 407-406-183-407-407-407z m250 438l-500 0c-17 0-31-14-31-31 0-17 14-31 31-31l500 0c18 0 32 14 32 31 0 17-14 31-32 31z" horiz-adv-x="1000" />

<glyph glyph-name="glyph-48" unicode="&#xe82f;" d="M531 788c-259 0-468-210-468-469s209-469 468-469 469 210 469 469-210 469-469 469z m0-876c-224 0-406 183-406 407s182 406 406 406 407-182 407-406-183-407-407-407z m250 438l-218 0 0 219c0 17-14 31-32 31s-31-14-31-31l0-219-219 0c-17 0-31-14-31-31 0-17 14-31 31-31l219 0 0-219c0-17 14-31 31-31s32 14 32 31l0 219 218 0c18 0 32 14 32 31 0 17-14 31-32 31z" horiz-adv-x="1000" />

<glyph glyph-name="glyph-49" unicode="&#xe830;" d="M531 788c-259 0-468-210-468-469s209-469 468-469 469 210 469 469-210 469-469 469z m0-876c-224 0-406 183-406 407s182 406 406 406 407-182 407-406-183-407-407-407z m173 624l-172-172-154 172c-12 12-32 12-44 0-12-12-12-32 0-44l154-172-174-174c-12-12-12-32 0-44 12-13 32-13 44 0l172 171 154-171c12-13 32-13 44 0s13 32 0 44l-154 172 174 174c13 12 13 32 0 44-12 12-32 12-44 0z" horiz-adv-x="1000" />

<glyph glyph-name="glyph-50" unicode="&#xe831;" d="M503 850c-276 0-500-224-500-500s224-500 500-500 500 224 500 500-224 500-500 500z m0-938c-242 0-438 197-438 438s196 438 438 438 437-197 437-438-196-438-437-438z m219 637c-21 13-48 7-61-13l-211-322-101 93c-18 17-45 15-62-2s-15-46 3-62l139-129c1-1 1-1 2-1 1-1 2-2 3-3 2-2 4-2 6-3 3-1 5-2 7-3 3 0 5-1 8-1 3 0 7 0 10 0 2 1 3 1 4 1 5 1 9 3 13 5 0 1 1 1 2 2 2 2 5 3 7 5 2 2 2 4 4 6 0 0 0 0 0 0l239 366c14 21 8 48-12 61z" horiz-adv-x="1000" />

<glyph glyph-name="glyph-51" unicode="&#xe832;" d="M594 850c-225 0-406-182-406-406 0-97 33-185 90-255l-265-265c-17-17-17-44 0-61 17-17 44-17 61 0l265 265c70-57 158-90 255-90 224 0 406 181 406 406s-182 406-406 406z m0-750c-190 0-344 154-344 344s154 344 344 344 344-155 344-344-155-344-344-344z m187 375l-375 0c-17 0-31-14-31-31 0-17 14-31 31-31l375 0c18 0 32 14 32 31 0 17-14 31-32 31z" horiz-adv-x="1000" />

<glyph glyph-name="glyph-52" unicode="&#xe833;" d="M594 850c-225 0-406-182-406-406 0-97 33-185 90-255l-265-265c-17-17-17-44 0-61 17-17 44-17 61 0l265 265c70-57 158-90 255-90 224 0 406 181 406 406s-182 406-406 406z m0-750c-190 0-344 154-344 344s154 344 344 344 344-155 344-344-155-344-344-344z m187 375l-156 0 0 156c0 18-14 32-31 32-17 0-31-14-31-32l0-156-157 0c-17 0-31-14-31-31 0-17 14-31 31-31l157 0 0-157c0-17 14-31 31-31 17 0 31 14 31 31l0 157 156 0c18 0 32 14 32 31 0 17-14 31-32 31z" horiz-adv-x="1000" />

<glyph glyph-name="glyph-53" unicode="&#xe834;" d="M594 850c-225 0-406-182-406-406 0-97 33-185 90-255l-269-269c-17-17-17-44 0-61 17-17 44-17 61 0l269 269c70-57 158-90 255-90 224 0 406 181 406 406s-182 406-406 406z m0-750c-190 0-344 154-344 344s154 344 344 344 344-155 344-344-155-344-344-344z" horiz-adv-x="1000" />

<glyph glyph-name="glyph-54" unicode="&#xe835;" d="M813 725l-625 0c-35 0-63-28-63-62l0-625c0-35 28-63 63-63l625 0c34 0 62 28 62 63l0 625c0 34-28 62-62 62z m0-687l-625 0 0 625 625 0 0-625z" horiz-adv-x="1000" />

<glyph glyph-name="glyph-55" unicode="&#xe836;" d="M813 725l-625 0c-35 0-63-28-63-62l0-625c0-35 28-63 63-63l625 0c34 0 62 28 62 63l0 625c0 34-28 62-62 62z m0-687l-625 0 0 625 625 0 0-625z m-438 125l250 0c35 0 63 28 63 62l0 250c0 35-28 63-63 63l-250 0c-34 0-62-28-62-63l0-250c0-34 28-62 62-62z" horiz-adv-x="1000" />

<glyph glyph-name="glyph-56" unicode="&#xe837;" d="M250 538l0-438c0-34 28-62 63-62l437 0c35 0 63 28 63 62l0 438c0 34-28 62-63 62l-437 0c-35 0-63-28-63-62z m500-438l-437 0 0 438 437 0 0-438z m-344 188l250 0c18 0 32 14 32 31 0 17-14 31-32 31l-250 0c-17 0-31-14-31-31 0-17 14-31 31-31z" horiz-adv-x="1000" />

<glyph glyph-name="glyph-57" unicode="&#xe838;" d="M250 538l0-438c0-34 28-62 63-62l437 0c35 0 63 28 63 62l0 438c0 34-28 62-63 62l-437 0c-35 0-63-28-63-62z m500-438l-437 0 0 438 437 0 0-438z m-344 188l94 0 0-94c0-17 14-31 31-31s32 14 32 31l0 94 93 0c18 0 32 14 32 31 0 17-14 31-32 31l-93 0 0 94c0 17-14 31-32 31s-31-14-31-31l0-94-94 0c-17 0-31-14-31-31 0-17 14-31 31-31z" horiz-adv-x="1000" />

<glyph glyph-name="glyph-58" unicode="&#xe839;" d="M813 38l-625 0 0 625 461 0 39 62-500 0c-35 0-63-28-63-62l0-625c0-35 28-63 63-63l625 0c34 0 62 28 62 63l0 412-62-100 0-312z m105 742c-8 5-16 8-24 8-14 0-28-7-37-20l-340-490-131 150c-18 16-45 15-62-3s-15-45 3-62l158-180c1-2 2-3 3-4l4-5c1 0 2 0 2-1 1-1 2-2 3-3 3-2 6-3 9-4 1 0 1-1 2-1 4-1 9-2 13-2 0 0 1 0 1 0 12 0 24 4 32 14 2 1 2 3 4 5 0 0 0 0 0 1l372 537c14 20 8 47-12 60z" horiz-adv-x="1000" />

<glyph glyph-name="glyph-59" unicode="&#xe83a;" d="M500 725c-207 0-375-168-375-375s168-375 375-375 375 168 375 375-168 375-375 375z m0-687c-172 0-312 140-312 312s140 313 312 313 313-141 313-313-141-312-313-312z" horiz-adv-x="1000" />

<glyph glyph-name="glyph-60" unicode="&#xe83b;" d="M500 725c-207 0-375-168-375-375s168-375 375-375 375 168 375 375-168 375-375 375z m0-687c-172 0-312 140-312 312s140 313 312 313 313-141 313-313-141-312-313-312z m-187 312a188 188 0 1 1 375 0 188 188 0 1 1-375 0z" horiz-adv-x="1000" />

<glyph glyph-name="glyph-61" unicode="&#xe83c;" d="M500 850c-276 0-500-224-500-500s224-500 500-500 500 224 500 500-224 500-500 500z m0-938c-241 0-437 197-437 438s196 438 437 438 438-197 438-438-197-438-438-438z m125 626l-250 0c-34 0-62-28-62-63l0-250c0-34 28-62 62-62l250 0c35 0 63 28 63 62l0 250c0 35-28 63-63 63z" horiz-adv-x="1000" />

<glyph glyph-name="glyph-62" unicode="&#xe83d;" d="M625 163c35 0 63 28 63 62l0 250c0 35-28 63-63 63l-250 0c-34 0-62-28-62-63l0-250c0-34 28-62 62-62l250 0z" horiz-adv-x="1000" />

<glyph glyph-name="glyph-63" unicode="&#xe83e;" d="M500-150c276 0 500 224 500 500s-224 500-500 500-500-224-500-500 224-500 500-500z m0 938c241 0 438-197 438-438s-197-438-438-438-437 197-437 438 196 438 437 438z m-125-625c35 0 63 28 63 62l0 250c0 35-28 63-63 63s-62-28-62-63l0-250c0-34 28-62 62-62z m250 0c35 0 63 28 63 62l0 250c0 35-28 63-63 63s-62-28-62-63l0-250c0-34 28-62 62-62z" horiz-adv-x="1000" />

<glyph glyph-name="glyph-64" unicode="&#xe83f;" d="M375 538c-34 0-62-28-62-63l0-250c0-34 28-62 62-62s63 28 63 62l0 250c0 35-28 63-63 63z m188-313c0-34 28-62 62-62s63 28 63 62l0 250c0 35-28 63-63 63s-62-28-62-63l0-250z" horiz-adv-x="1000" />

<glyph glyph-name="glyph-65" unicode="&#xe840;" d="M219 350l562 0c18 0 32 14 32 31 0 18-14 32-32 32l-562 0c-17 0-31-14-31-32 0-17 14-31 31-31z m0 188l562 0c18 0 32 14 32 31 0 17-14 31-32 31l-562 0c-17 0-31-14-31-31 0-17 14-31 31-31z m0-375l562 0c18 0 32 14 32 31 0 17-14 31-32 31l-562 0c-17 0-31-14-31-31 0-17 14-31 31-31z" horiz-adv-x="1000" />

<glyph glyph-name="glyph-66" unicode="&#xe841;" d="M938 788l-813 0c-34 0-62-28-62-63l0-813c0-34 28-62 62-62l813 0c34 0 62 28 62 62l0 813c0 35-28 63-62 63z m0-876l-813 0 0 813 813 0 0-813z m-657 376l500 0c18 0 32 14 32 31 0 17-14 31-32 31l-500 0c-17 0-31-14-31-31 0-17 14-31 31-31z m0 187l500 0c18 0 32 14 32 31 0 18-14 32-32 32l-500 0c-17 0-31-14-31-32 0-17 14-31 31-31z m0-375l500 0c18 0 32 14 32 31 0 18-14 32-32 32l-500 0c-17 0-31-14-31-32 0-17 14-31 31-31z" horiz-adv-x="1000" />

<glyph glyph-name="glyph-67" unicode="&#xe842;" d="M531 788c-259 0-468-210-468-469s209-469 468-469 469 210 469 469-210 469-469 469z m0-876c-224 0-406 183-406 407s182 406 406 406 407-182 407-406-183-407-407-407z m250 438l-500 0c-17 0-31-14-31-31 0-17 14-31 31-31l500 0c18 0 32 14 32 31 0 17-14 31-32 31z m0 188l-500 0c-17 0-31-14-31-32 0-17 14-31 31-31l500 0c18 0 32 14 32 31 0 18-14 32-32 32z m0-375l-500 0c-17 0-31-14-31-32 0-17 14-31 31-31l500 0c18 0 32 14 32 31 0 18-14 32-32 32z" horiz-adv-x="1000" />

<glyph glyph-name="glyph-68" unicode="&#xe843;" d="M344 350l500 0c17 0 31 14 31 31 0 18-14 32-31 32l-500 0c-17 0-31-14-31-32 0-17 14-31 31-31z m0 250l500 0c17 0 31 14 31 31 0 18-14 32-31 32l-500 0c-17 0-31-14-31-32 0-17 14-31 31-31z m0-500l500 0c17 0 31 14 31 31 0 18-14 32-31 32l-500 0c-17 0-31-14-31-32 0-17 14-31 31-31z m-219 531a31 31 0 1 1 63 0 31 31 0 1 1-63 0z m0-250a31 31 0 1 1 63 0 31 31 0 1 1-63 0z m0-250a31 31 0 1 1 63 0 31 31 0 1 1-63 0z" horiz-adv-x="1000" />

<glyph glyph-name="glyph-69" unicode="&#xe844;" d="M844 413l-500 0c-17 0-31-14-31-32 0-17 14-31 31-31l500 0c17 0 31 14 31 31 0 18-14 32-31 32z m0 250l-500 0c-17 0-31-14-31-32 0-17 14-31 31-31l500 0c17 0 31 14 31 31 0 18-14 32-31 32z m0-500l-500 0c-17 0-31-14-31-32 0-17 14-31 31-31l500 0c17 0 31 14 31 31 0 18-14 32-31 32z m-626 391l0 154-18 0-34-18 4-16 27 15 0 0 0-135z m-50-221l-16-16 0-13 98 0 0 18-69 0 0 0 12 11c33 32 53 55 53 83 0 22-14 45-47 45-18 0-33-7-44-16l7-14c7 5 19 13 33 13 23 0 30-15 30-31 0-23-18-43-57-80z m26-262c-15 0-29 6-35 10l-5-16c7-5 23-11 40-11 37 0 56 22 56 46 0 22-15 36-34 40l0 0c19 7 28 21 28 37 0 19-14 37-44 37-17 0-32-6-40-12l5-16c7 5 19 11 31 11 19 0 27-11 27-24 0-18-19-26-34-26l-12 0 0-15 12 0c20 0 39-10 39-31 1-13-8-30-34-30z" horiz-adv-x="1000" />

<glyph glyph-name="glyph-70" unicode="&#xe845;" d="M844 663l-94 0c0 34-28 62-62 62l-63 0c-34 0-62-28-62-62l-407 0c-17 0-31-14-31-32 0-17 14-31 31-31l407 0c0-34 28-62 62-62l63 0c34 0 62 28 62 62l94 0c17 0 31 14 31 31 0 18-14 32-31 32z m-156-63l-63 0 0 63 63 0 0-63z m156-187l-406 0c0 34-28 62-63 62l-62 0c-35 0-63-28-63-62l-94 0c-17 0-31-14-31-32 0-17 14-31 31-31l94 0c0-34 28-62 63-62l62 0c35 0 63 28 63 62l406 0c17 0 31 14 31 31 0 18-14 32-31 32z m-469-63l-62 0 0 63 62 0 0-63z m469-187l-219 0c0 34-28 62-62 62l-63 0c-34 0-62-28-62-62l-282 0c-17 0-31-14-31-32 0-17 14-31 31-31l282 0c0-34 28-62 62-62l63 0c34 0 62 28 62 62l219 0c17 0 31 14 31 31 0 18-14 32-31 32z m-281-63l-63 0 0 63 63 0 0-63z" horiz-adv-x="1000" />

<glyph glyph-name="glyph-71" unicode="&#xe846;" d="M313 600l0 94c0 17-14 31-32 31s-31-14-31-31l0-94c-34 0-62-28-62-62l0-63c0-34 28-62 62-62l0-407c0-17 14-31 31-31s32 14 32 31l0 407c34 0 62 28 62 62l0 63c0 34-28 62-62 62z m-63-62l63 0 0-63-63 0 0 63z m313-250l0 406c0 17-14 31-32 31s-31-14-31-31l0-406c-34 0-62-28-62-63l0-62c0-35 28-63 62-63l0-94c0-17 14-31 31-31s32 14 32 31l0 94c34 0 62 28 62 63l0 62c0 35-28 63-62 63z m-63-63l63 0 0-62-63 0 0 62z m313 250l0 219c0 17-14 31-32 31s-31-14-31-31l0-219c-34 0-62-28-62-62l0-63c0-34 28-62 62-62l0-282c0-17 14-31 31-31s32 14 32 31l0 282c34 0 62 28 62 62l0 63c0 34-28 62-62 62z m-63-62l63 0 0-63-63 0 0 63z" horiz-adv-x="1000" />

<glyph glyph-name="glyph-72" unicode="&#xe847;" d="M125-150l750 0c35 0 63 28 63 62l0 876c0 34-28 62-63 62l-750 0c-34 0-62-28-62-62l0-876c0-34 28-62 62-62z m0 938l750 0 0-876-750 0 0 876z m594-125l-250 0c-17 0-31-14-31-32 0-17 14-31 31-31l250 0c17 0 31 14 31 31 0 18-14 32-31 32z m0-188l-438 0c-17 0-31-14-31-31 0-17 14-31 31-31l438 0c17 0 31 14 31 31 0 17-14 31-31 31z m0-187l-438 0c-17 0-31-14-31-32 0-17 14-31 31-31l438 0c17 0 31 14 31 31 0 18-14 32-31 32z m0-188l-438 0c-17 0-31-14-31-31 0-17 14-31 31-31l438 0c17 0 31 14 31 31 0 17-14 31-31 31z" horiz-adv-x="1000" />

<glyph glyph-name="glyph-73" unicode="&#xe848;" d="M125-25l63 0 0-63c0-34 28-62 62-62l625 0c35 0 63 28 63 62l0 751c0 34-28 62-63 62l-62 0 0 63c0 34-28 62-63 62l-625 0c-34 0-62-28-62-62l0-750c0-35 28-63 62-63z m625 63l-625 0 0 750 625 0 0-750z m125 625l0-751-625 0 0 63 500 0c35 0 63 28 63 63l0 625 62 0z m-562-32c0-17 14-31 31-31l312 0c18 0 32 14 32 31 0 18-14 32-32 32l-312 0c-17 0-31-14-31-32z m-94-218l437 0c18 0 32 14 32 31 0 17-14 31-32 31l-437 0c-17 0-31-14-31-31 0-17 14-31 31-31z m0-125l437 0c18 0 32 14 32 31 0 17-14 31-32 31l-437 0c-17 0-31-14-31-31 0-17 14-31 31-31z m0-125l437 0c18 0 32 14 32 31 0 17-14 31-32 31l-437 0c-17 0-31-14-31-31 0-17 14-31 31-31z" horiz-adv-x="1000" />

<glyph glyph-name="glyph-74" unicode="&#xe849;" d="M941-91l-65 198-531 530-32-33-100-99 530-531z m-817 684l133 133-66 65c-36 37-96 37-132 0-37-36-37-96 0-132l65-66z" horiz-adv-x="1000" />

<glyph glyph-name="glyph-75" unicode="&#xe84a;" d="M644 93l169-55-56 168-321 321-113-113z m-387 388l112 112-82 83c-31 31-82 31-113 0-31-31-31-82 0-113l83-82z m681 369l-875 0c-35 0-63-28-63-62l0-876c0-34 28-62 63-62l875 0c34 0 62 28 62 62l0 876c0 34-28 62-62 62z m0-938l-875 0 0 876 875 0 0-876z" horiz-adv-x="1000" />

<glyph glyph-name="glyph-76" unicode="&#xe84b;" d="M662 188l-56 169-321 321-113-113 322-321z m-639 639c-31-31-31-82 0-113l83-82 113 112-83 83c-31 31-82 31-113 0z m915-164l-444 0 63-63 381 0 0-688-688 0 0 381-62 63 0-444c0-34 28-62 62-62l688 0c34 0 62 28 62 62l0 688c0 35-28 63-62 63z" horiz-adv-x="1000" />

<glyph glyph-name="glyph-77" unicode="&#xe84c;" d="M938 663l-283 0c-34 0-74-18-92-63 0 0-9-57-63-62l-437 0c-35 0-63-27-63-62l0-564c0-34 28-62 63-62l875 0c34 0 62 28 62 62l0 501 0 63 0 124c0 35-28 63-62 63z m0-187l0-63 0-501-875 0 0 563 437 0c2 0 4 0 6 0 59 6 95 47 112 89 16 41 44 36 44 36l276 0 0-124z" horiz-adv-x="1000" />

<glyph glyph-name="glyph-78" unicode="&#xe84d;" d="M1000 539l0 124c0 34-28 62-62 62l-313 0c-34 0-62-28-62-62 0 0-9-58-63-63l-437 0c-35 0-63-27-63-61l0-64 1000 0 0 64z m-937-689l875 0c34 0 62 28 62 62l0 501-1000 0 0-501c0-34 28-62 63-62z m0 500l875 0 0-438-875 0 0 438z" horiz-adv-x="1000" />

<glyph glyph-name="glyph-79" unicode="&#xe84e;" d="M938 663l-220 0c-35 0-74-18-93-63 0 0-8-57-62-62l-438 0c-34 0-62-27-62-62l0-564c0-34 28-62 62-62l813 0c34 0 62 28 62 62l0 501 0 63 0 124c0 35-28 63-62 63z m0-187l0-63 0-501-813 0 0 563 438 0c2 0 3 0 5 0 59 6 95 47 112 89 16 41 45 36 45 36l213 0 0-124z m-250-251l-125 0 0 125c0 17-14 31-32 31s-31-14-31-31l0-125-125 0c-17 0-31-14-31-31 0-17 14-31 31-31l125 0 0-125c0-18 14-32 31-32s32 14 32 32l0 125 125 0c17 0 31 14 31 31 0 17-14 31-31 31z" horiz-adv-x="1000" />

<glyph glyph-name="glyph-80" unicode="&#xe84f;" d="M500 850c-276 0-500-224-500-500s224-500 500-500 500 224 500 500-224 500-500 500z m0-938c-241 0-437 197-437 438s196 438 437 438 438-197 438-438-197-438-438-438z m0 563c-34 0-62-28-62-62l0-313c0-34 28-62 62-62s63 28 63 62l0 313c0 34-28 62-63 62z m-62 124a63 63 0 1 1 125 0 63 63 0 1 1-125 0z" horiz-adv-x="1000" />

<glyph glyph-name="glyph-81" unicode="&#xe850;" d="M725 832c-11 11-27 18-44 18l-362 0c-17 0-33-7-44-18l-257-257c-11-11-18-27-18-44l0-362c0-17 7-33 18-44l257-257c11-11 27-18 44-18l362 0c17 0 33 7 44 18l257 257c11 11 18 27 18 44l0 362c0 17-7 33-18 44l-257 257z m213-663l-257-257-362 0-256 257 0 362 256 257 362 0 257-257 0-362z m-438 494c-34 0-62-28-62-63l0-312c0-35 28-63 62-63s63 28 63 63l0 312c0 35-28 63-63 63z m-62-563a63 63 0 1 1 125 0 63 63 0 1 1-125 0z" horiz-adv-x="1000" />

<glyph glyph-name="glyph-82" unicode="&#xe851;" d="M500 850c-276 0-500-224-500-500s224-500 500-500 500 224 500 500-224 500-500 500z m0-938c-241 0-437 197-437 438s196 438 437 438 438-197 438-438-197-438-438-438z m0 751c-34 0-62-28-62-63l0-312c0-35 28-63 62-63s63 28 63 63l0 312c0 35-28 63-63 63z m-62-562a63 63 0 1 1 125 0 63 63 0 1 1-125 0z" horiz-adv-x="1000" />

<glyph glyph-name="glyph-83" unicode="&#xe852;" d="M989-58l-434 812c-11 21-32 34-55 34l0 0c-23 0-44-13-55-33l-436-813c-10-19-9-43 2-62 11-18 32-30 53-30l870 0c22 0 42 11 53 30 12 19 12 43 2 62z m-925-30l436 813 434-813-870 0z m374 500l0-188c0-34 28-62 62-62s63 28 63 62l0 188c0 34-28 62-63 62s-62-28-62-62z m0-374a63 63 0 1 1 125 0 63 63 0 1 1-125 0z" horiz-adv-x="1000" />

<glyph glyph-name="glyph-84" unicode="&#xe853;" d="M500 850c-276 0-500-224-500-500s224-500 500-500 500 224 500 500-224 500-500 500z m0-938c-241 0-437 197-437 438s196 438 437 438 438-197 438-438-197-438-438-438z m-70 125a64 64 0 1 1 129 0 64 64 0 1 1-129 0z m65 688c-121 0-250-88-250-251 0-35 28-63 62-63s63 28 63 63c0 87 65 126 125 126 47 0 125-14 125-105 0-33-9-71-72-106-43-23-116-85-116-164 0-34 28-62 63-62s62 28 62 62c0 12 25 40 51 55 91 50 137 122 137 215 0 159-126 230-250 230z" horiz-adv-x="1000" />

<glyph glyph-name="glyph-85" unicode="&#xe854;" d="M430 37a64 64 0 1 1 129 0 64 64 0 1 1-129 0z m178 243c91 50 137 122 137 215 0 159-126 230-250 230-121 0-250-88-250-251 0-35 28-63 62-63s63 28 63 63c0 87 65 126 125 126 47 0 125-14 125-105 0-33-9-71-72-106-43-23-116-85-116-164 0-34 28-62 63-62s62 28 62 62c0 12 25 40 51 55z" horiz-adv-x="1000" />

<glyph glyph-name="glyph-86" unicode="&#xe855;" d="M59-68c5-11 17-18 29-18 89 0 165 22 251 72 42-6 125-14 161-14 274 0 496 182 496 407s-222 407-496 407-496-182-496-407c0-106 51-208 141-284-21-46-48-90-81-130-8-9-10-22-5-33z m7 447c0 190 195 345 434 345s434-155 434-345-195-345-434-345c-36 0-129 10-161 16-7 1-15 0-22-4-58-36-109-56-163-65 23 36 43 73 58 112 5 13 1 28-11 37-87 66-135 154-135 249z" horiz-adv-x="1000" />

<glyph glyph-name="glyph-87" unicode="&#xe856;" d="M872 482c6-25 9-51 9-77 0-201-171-370-397-406 48-19 101-30 158-30 54 0 105 10 150 27 58-20 122-25 174-25-27 33-46 65-60 93 58 51 94 120 94 195 0 90-50 169-128 223z m-826-426c5-11 16-17 28-17 0 0 1 0 1 0 33 2 99 24 169 68 37-7 120-19 149-19 220 0 392 153 392 348 0 192-175 349-392 349s-391-156-391-349c0-89 39-176 108-240-15-38-36-74-61-107-7-9-9-22-3-33z m18 380c0 158 148 286 330 286s329-128 329-286c0-163-142-286-329-286-25 0-123 15-150 20-9 2-17 0-24-4-27-18-52-31-74-41 12 22 22 45 31 69 4 13 0 27-10 35-66 55-103 128-103 207z" horiz-adv-x="1000" />

<glyph glyph-name="glyph-88" unicode="&#xe857;" d="M63 92l143 0c11-11 272-231 272-231 13-8 25-11 35-11 2 0 3 0 5 0 23 2 40 22 45 42l0 916c-5 20-22 40-45 42-2 0-3 0-5 0-10 0-22-3-35-11 0 0-261-228-272-239l-143 0c-35 0-63-28-63-62l0-8 0-367 0-8c0-35 28-63 63-63z m0 71l0 367 0 8 143 0c16 0 32 6 43 17 12 11 153 135 251 220l0-851c-97 82-239 202-250 212-12 12-28 19-44 19l-143 0 0 8z m926 349c-15 15-39 15-54 0l-108-108-108 108c-15 15-39 15-54 0-15-15-15-39 0-54l108-108-108-108c-15-15-15-39 0-54 15-15 39-15 54 0l108 108 108-108c15-15 39-15 54 0 15 15 15 39 0 54l-108 108 108 108c15 15 15 39 0 54z" horiz-adv-x="1000" />

<glyph glyph-name="glyph-89" unicode="&#xe858;" d="M638 850c-10 0-22-3-35-11 0 0-261-228-272-239l-143 0c-35 0-63-28-63-62l0-8 0-367 0-8c0-35 28-63 63-63l143 0c11-11 272-231 272-231 13-8 25-11 35-11 2 0 3 0 5 0 23 2 40 22 45 42l0 916c-5 20-22 40-45 42-2 0-3 0-5 0z m-13-926c-97 82-239 202-250 212-12 12-28 19-44 19l-143 0 0 8 0 367 0 8 143 0c16 0 32 6 43 17 12 11 153 135 251 220l0-851z m159 317c-16-8-22-27-14-42 5-11 16-17 28-17 5 0 9 1 14 3 63 32 102 95 102 165s-39 133-102 165c-16 8-34 2-42-14-8-15-2-34 14-42 42-21 68-63 68-109s-26-88-68-109z" horiz-adv-x="1000" />

<glyph glyph-name="glyph-90" unicode="&#xe859;" d="M63 92l143 0c11-11 272-231 272-231 13-8 25-11 35-11 2 0 3 0 5 0 23 2 40 22 45 42l0 916c-5 20-22 40-45 42-2 0-3 0-5 0-10 0-22-3-35-11 0 0-261-228-272-239l-143 0c-35 0-63-28-63-62l0-8 0-367 0-8c0-35 28-63 63-63z m0 71l0 367 0 8 143 0c16 0 32 6 43 17 12 11 153 135 251 220l0-851c-97 82-239 202-250 212-12 12-28 19-44 19l-143 0 0 8z m596 78c-16-8-22-27-14-42 5-11 16-17 28-17 5 0 9 1 14 3 63 32 102 95 102 165s-39 133-102 165c-16 8-34 2-42-14-8-15-2-34 14-42 42-21 68-63 68-109s-26-88-68-109z m-43-250c3-15 16-25 30-25 2 0 4 0 7 1 183 35 316 197 316 383s-133 348-317 383c-16 4-33-7-36-24-3-17 8-34 25-37 154-30 265-165 265-322s-111-292-265-322c-17-3-28-20-25-37z" horiz-adv-x="1000" />

<glyph glyph-name="glyph-91" unicode="&#xe85a;" d="M250 440c0-53 41-96 92-96 16 0 31 5 45 13-5-51-31-126-125-202-13-10-16-30-5-44 6-8 15-12 24-12 6 0 13 2 18 7 116 93 145 189 149 253 6 82-18 125-41 148-2 2-4 4-7 6-5 5-10 8-14 11 0 0 0 0-1 0 0 0 0 0-1 0-6 4-10 5-10 5l0 0c-10 4-20 7-32 7-51 0-92-43-92-96z m303 0c0-53 41-96 92-96 16 0 31 5 45 13-5-51-31-126-125-202-13-10-16-30-5-44 6-8 15-12 24-12 6 0 13 2 18 7 116 93 145 189 149 253 6 82-19 125-41 148-2 2-4 4-7 6-5 5-10 8-14 11 0 0 0 0-1 0 0 0 0 0-1 0-6 4-10 5-10 5l0 0c-10 4-21 7-32 7-51 0-92-43-92-96z" horiz-adv-x="1000" />

<glyph glyph-name="glyph-92" unicode="&#xe85b;" d="M500 850c-276 0-500-224-500-500s224-500 500-500 500 224 500 500-224 500-500 500z m0-938c-241 0-437 197-437 438s196 438 437 438 438-197 438-438-197-438-438-438z m-100 601c-5 5-10 8-14 11 0 0 0 0-1 0 0 0 0 0-1 0-6 4-10 5-10 5l0 0c-10 4-20 7-32 7-51 0-92-43-92-96 0-53 41-96 92-96 16 0 31 5 45 13-5-51-31-126-125-202-13-10-16-30-5-44 6-8 15-12 24-12 6 0 13 2 18 7 116 93 145 189 149 253 6 82-18 125-41 148-2 2-4 4-7 6z m303 0c-5 5-10 8-14 11 0 0 0 0-1 0 0 0 0 0-1 0-6 4-10 5-10 5l0 0c-10 4-21 7-32 7-51 0-92-43-92-96 0-53 41-96 92-96 16 0 31 5 45 13-5-51-31-126-125-202-13-10-16-30-5-44 6-8 15-12 24-12 6 0 13 2 18 7 116 93 145 189 149 253 6 82-19 125-41 148-2 2-4 4-7 6z" horiz-adv-x="1000" />

<glyph glyph-name="glyph-93" unicode="&#xe85c;" d="M533 783c-119 0-239-45-330-136-182-183-182-478 0-660 92-91 211-137 330-137s239 46 330 137c183 182 183 477 0 660-91 91-210 136-330 136z m286-752c-76-76-178-119-286-119-108 0-209 43-285 119-77 76-119 178-119 286s42 209 119 286c76 76 177 118 285 118 108 0 210-42 286-118s119-178 119-286-43-210-119-286z m-100 319l-156 0 0 219c0 17-14 31-32 31s-31-14-31-31l0-250c0 0 0 0 0 0l0 0c0-17 14-31 31-31l188 0c17 0 31 14 31 31 0 17-14 31-31 31z" horiz-adv-x="1000" />

<glyph glyph-name="glyph-94" unicode="&#xe85d;" d="M500 850c-173 0-312-142-312-317l0-58-63 0c-34 0-62-28-62-62l0-501c0-34 28-62 62-62l750 0c35 0 63 28 63 62l0 501c0 34-28 62-63 62l-62 0 0 58c0 175-140 317-313 317z m-250-317c0 140 112 255 250 255s250-115 250-255l0-58-500 0 0 58z m625-621l-750 0 0 501 750 0 0-501z m-250 251c0 69-56 125-125 125s-125-56-125-125 56-125 125-125 125 55 125 125z m-125-63c-34 0-62 28-62 63s28 62 62 62 63-28 63-62-29-63-63-63z" horiz-adv-x="1000" />

<glyph glyph-name="glyph-95" unicode="&#xe85e;" d="M938-88l0 501c0 34-28 62-63 62l-625 0 0 27c0 168 104 286 253 286 109 0 206-63 254-164 7-16 26-22 41-15 16 7 23 26 15 42-58 123-176 199-310 199-183 0-315-147-315-348l-1-27-62 0c-34 0-62-28-62-62l0-501c0-34 28-62 62-62l750 0c35 0 63 28 63 62z m-813 501l750 0 0-501-750 0 0 501z m375-125c-69 0-125-56-125-125s56-125 125-125 125 55 125 125-56 125-125 125z m0-188c-34 0-62 28-62 63s28 62 62 62 63-28 63-62-29-63-63-63z" horiz-adv-x="1000" />

<glyph glyph-name="glyph-96" unicode="&#xe85f;" d="M344 69c0 18-4 36-12 53-21 44-65 72-113 72-69 0-125-56-125-125 0-13 2-24 5-35 21-35 50-64 85-85 11-3 22-5 35-5 69 0 125 56 125 125z m-125 62c24 0 46-14 56-36 4-8 6-17 6-26 0-35-28-63-62-63s-63 28-63 63 28 62 63 62z m750 719l-135 0c-8 0-15-3-21-7l-442-374c-21 4-40 6-58 6-173 0-313-140-313-312s140-313 313-313 312 140 312 313c0 32-5 65-16 96l96 62c8 6 14 16 14 26l0 114 119 6c15 1 28 13 29 29l11 120 104 50c11 5 18 16 18 28l0 125c0 17-14 31-31 31z m-31-137l-102-48c-10-5-17-15-18-26l-11-111-121-6c-17-1-30-15-30-31l0-127-102-66c-12-8-17-24-11-38 13-32 20-64 20-97 0-138-113-251-250-251-48 0-92 14-129 37-35 21-64 50-85 85-23 37-36 81-36 129 0 137 112 250 250 250 18 0 37-3 59-8 9-3 20 0 27 6l446 377 93 0 0-75z" horiz-adv-x="1000" />

<glyph glyph-name="glyph-97" unicode="&#xe860;" d="M813 350c-3 0-5-1-7-1 4 21 7 42 7 64 0 172-140 312-313 312s-312-140-312-312c0-2 0-3 0-4-106-15-188-105-188-215 0-110 82-201 188-216l0-3 625 0c103 0 187 84 187 188s-84 187-187 187z m0-312l-606 0c-3 1-7 2-11 2-76 11-133 77-133 154 0 77 57 143 134 154 31 4 54 31 53 62 0 2 0 4 0 6 2 136 113 247 250 247 138 0 250-113 250-250 0-17-2-34-5-51-4-19 1-38 13-53 12-14 30-22 48-22 1 0 2 0 2 0 2 0 5 0 7 1 68-2 123-57 123-125 0-69-57-125-125-125z" horiz-adv-x="1000" />

<glyph glyph-name="glyph-98" unicode="&#xe861;" d="M814 350c-3 0-5 0-8 0 4 21 7 42 7 63 0 172-141 312-313 312-172 0-312-139-313-309 0 0 1-7 1-7l0 0c-107-15-188-108-188-215 0-109 79-203 188-219l156 0c17 0 31 14 31 31s-14 32-31 32l-152-1c-73 11-129 80-129 157 0 77 57 143 134 154l27 3c15 3 26 16 26 31l0 34c0 136 112 247 250 247 138 0 250-113 250-250 0-17-2-34-5-51l-8-40c-2-10 1-20 7-27 7-8 17-12 27-10 1 0 21 3 43 3 68 0 124-56 124-125 0-69-57-125-125-125l-219 0c-88 0-94 52-94 62l0 207 74-73c12-13 32-13 44 0 12 12 12 32 0 44l-126 125c-6 7-14 10-22 10 0 0-1 0-1 0-9 0-17-4-23-10l-126-126c-12-12-12-32 0-44 12-12 32-12 44 0l74 73 0-206c0-43 32-125 156-125l219 0c103 0 187 84 187 188s-83 187-186 187z" horiz-adv-x="1000" />

<glyph glyph-name="glyph-99" unicode="&#xe862;" d="M818 350c58 134 22 219-7 260-45 63-126 97-197 83-124-23-176-107-176-280l0-145-73 72c-12 12-32 12-44 0s-12-32 0-44l126-126c6-6 14-9 23-9 8 0 16 3 22 9l127 127c12 12 12 32 0 44s-32 12-44 0l-75-75 0 147c0 180 62 207 126 219 40 7 100-10 134-58 42-59 34-146-23-245-6-10-5-24 2-33s19-15 31-13c7 1 30 5 44 5 68 0 124-56 124-125 0-69-57-125-125-125l-621-1c-73 11-129 80-129 157 0 77 57 143 134 154l27 3c15 3 26 16 26 31l0 34c0 112 69 204 164 218 17 3 29 19 26 36-3 17-18 29-36 26-125-19-216-137-217-280 0 0 1-7 1-7l0 0c-107-15-188-108-188-215 0-109 79-203 188-219l625 0c103 0 187 84 187 188 0 102-81 185-182 187z" horiz-adv-x="1000" />

<glyph glyph-name="glyph-100" unicode="&#xe863;" d="M538 485a87 87 0 1 1 174 0 87 87 0 1 1-174 0z m275-510l62 0 0 63 0 125 0 187-250-187-312 250-188-188 0-62 0-125 0-63 63 0z m125 750l-875 0c-35 0-63-28-63-62l0-751c0-34 28-62 63-62l875 0c34 0 62 28 62 62l0 751c0 34-28 62-62 62z m0-813l-875 0 0 751 875 0 0-751z" horiz-adv-x="1000" />

<glyph glyph-name="glyph-101" unicode="&#xe864;" d="M938 663l-63 0 0 125c0 34-28 62-62 62l-750 0c-35 0-63-28-63-62l0-688c0-34 28-62 63-62l62 0 0-126c0-34 28-62 63-62l750 0c34 0 62 28 62 62l0 688c0 35-28 63-62 63z m-875-563l0 688 750 0 0-688-750 0z m875-188l-750 0 0 126 62 0 0-63 63 0 500 0 62 0 0 63 0 62 0 188 0 312 63 0 0-688z m-476 682a87 87 0 1 1 174 0 87 87 0 1 1-174 0z m-149-56l-188-125 0-125 0-63 0-62 63 0 500 0 62 0 0 62 0 63 0 187-250-125z" horiz-adv-x="1000" />

<glyph glyph-name="glyph-102" unicode="&#xe865;" d="M500 850c-207 0-375-168-375-375 0-121 59-235 157-305 2-1 3-2 5-3 23-14 25-57 25-65-1-1-1-3-1-4l0-123c0-24 14-45 34-56l127-64c9-5 18-7 28-7 10 0 19 2 28 7l128 64c21 11 34 32 34 56l0 122c0 62 38 82 38 83 5 2 10 5 14 9 85 71 133 175 133 286 0 207-168 375-375 375z m-126-752c0 0 0 1 0 2l254 0c0-1 0-2 0-3 0-24 0-44 0-59l-254 0 0 60z m126-187l-126 64 254 0-128-64z m202 325c0 0-42-19-63-73l-275 0c-8 21-21 43-45 58-80 56-131 149-131 254 0 173 139 313 312 313s313-140 313-313c0-96-44-181-111-239z m-171 489c-17 0-31-14-31-31s14-31 31-31c71 0 157-64 157-160 0-17 14-31 31-31s31 14 31 31c0 143-111 222-219 222z" horiz-adv-x="1000" />

<glyph glyph-name="glyph-103" unicode="&#xe866;" d="M938 600l-374 0-126 0-375 0c-35 0-63-28-63-62l0-188 63 0 0-438c0-34 28-62 62-62l313 0 126 0 311 0c35 0 63 28 63 62l0 438 62 0 0 188c0 34-28 62-62 62z m-875-62l375 0 0-125-375 0 0 125z m62-626l0 438 313 0 0-438-313 0z m750 0l-311 0 0 438 311 0 0-438z m63 501l-374 0 0 125 374 0 0-125z m-438 250c0 0 0 0 0 0l0 0c0 0 0 0 0 0 0 0 164 0 250 0 86 0 125 42 125 93s-39 94-125 94c-81 0-144-36-187-79-19 12-41 18-65 18-22 0-43-6-62-16-43 41-106 77-186 77-86 0-125-42-125-94s39-93 125-93c86 0 250 0 250 0z m313 93c0-26-34-31-63-31l-142 0c0 1-1 2-1 3 31 31 80 60 143 60 29 0 63-6 63-32z m-625 0c0 26 34 32 62 32 62 0 109-28 141-58-1-2-2-3-3-5l-138 0c-28 0-62 5-62 31z" horiz-adv-x="1000" />

<glyph glyph-name="glyph-104" unicode="&#xe867;" d="M51 294l74 60 0-442c0-34 28-62 63-62l187 0c35 0 63 28 63 62l0 251 125 0 0-251c0-34 28-62 62-62l188 0c34 0 62 28 62 62l0 442 74-60c6-4 13-6 20-6 9 0 18 4 24 11 11 14 9 33-5 44l-468 375c-12 9-28 9-39 0l-168-134 0 79c0 34-28 62-63 62s-62-28-62-62l0-179-176-141c-14-11-16-30-5-44 11-13 30-15 44-5z m449 360l313-250 0-492-188 0 0 313-250 0 0-313-187 0 0 492 312 250z" horiz-adv-x="1000" />

<glyph glyph-name="glyph-105" unicode="&#xe868;" d="M80 80c15-24 46-52 111-52 41 0 93 12 151 33 26-111 72-211 158-211 88 0 134 104 159 217 58-20 111-31 152-31 69 0 101 29 116 54 48 79-27 180-119 263 17 17 33 33 47 49 79 90 101 163 66 219-15 23-47 51-112 51l0 0c-41 0-93-12-151-33-26 111-72 211-158 211-87 0-134-104-159-217-58 20-111 31-152 31l0 0c-69 0-101-29-116-54-48-79 27-180 119-263-17-17-33-33-47-49-79-90-101-163-65-218z m420-168c-40 0-76 68-99 172 33 15 67 31 102 50 33-17 66-32 97-45-23-107-59-177-100-177z m-125 438c0 23 1 45 2 67 18 13 36 26 55 38 23 14 45 28 66 40 22-12 45-25 67-38 20-13 40-25 58-38 1-22 2-45 2-69 0-23-1-45-2-67-18-13-36-26-55-38-23-14-44-27-66-40-22 12-45 25-67 38-20 13-39 25-58 38-1 22-2 45-2 69z m-62-23c-9 7-18 14-27 20 9 8 18 15 27 22 0-8 0-15 0-19 0-5 0-13 0-23z m69 170c2 17 4 35 7 51 14-6 29-13 43-20-11-6-22-13-33-20-6-4-11-8-17-11z m181 33c17 8 32 16 48 23 2-18 5-36 7-55-9 5-16 10-20 12-12 7-23 13-35 20z m124-156c9-7 18-14 27-21-9-8-18-15-27-22 0 8 1 15 1 19 0 5-1 13-1 24z m-69-171c-2-17-4-35-7-51-14 6-28 13-43 20 11 6 22 13 34 20 5 4 10 8 16 11z m-216-13c12-7 23-13 35-20-17-8-32-16-48-23-2 18-5 36-7 55 9-5 16-10 20-12z m471-68c-9-16-31-24-62-24-36 0-85 11-140 31 6 43 10 85 13 120 28 21 54 42 78 63 88-80 134-153 111-190z m-64 487c29 0 49-7 59-22 23-37-21-111-107-193-27 22-54 42-77 59-3 37-7 80-14 124 55 20 104 32 139 32z m-309 179c40 0 76-68 99-172-33-15-67-31-101-50-34 17-67 32-98 45 23 107 59 177 100 177z m-373-210c9 16 31 24 62 24 36 0 85-11 140-31-6-43-10-84-13-120-28-21-53-42-78-63-88 80-134 153-111 190z m189-331c3-37 7-80 14-124-55-20-103-32-139-32-29 0-49 7-59 22-23 37 21 111 107 193 27-22 54-42 77-59z" horiz-adv-x="1000" />

<glyph glyph-name="glyph-106" unicode="&#xe869;" d="M750-150c35 0 63 28 63 62l0 876c0 34-28 62-63 62l-437 0c-35 0-63-28-63-62l0-876c0-34 28-62 63-62l437 0z m-250 98c0 19 16 35 35 35s35-16 35-35-15-36-35-36-35 16-35 36z m156 840c18 0 32-14 32-32 0-17-14-31-32-31l-62 0c-17 0-31 14-31 31 0 18 14 32 31 32l62 0z m-156-32c0-17-14-31-31-31s-31 14-31 31c0 18 14 32 31 32s31-14 31-32z m-187-93l437 0 0-625-437 0 0 625z" horiz-adv-x="1000" />

<glyph glyph-name="glyph-107" unicode="&#xe86a;" d="M813-150c34 0 62 28 62 62l0 876c0 34-28 62-62 62l-625 0c-35 0-63-28-63-62l0-876c0-34 28-62 63-62l625 0z m-313 27c-19 0-35 16-35 35s16 36 35 36 35-16 35-36-16-35-35-35z m-250 848l500 0 0-750-500 0 0 750z" horiz-adv-x="1000" />

<glyph glyph-name="glyph-108" unicode="&#xe86b;" d="M968 100l-30 0 0 563c0 34-28 62-63 62l-750 0c-34 0-62-28-62-62l0-563-31 0c-18 0-32-14-32-31 0-17 14-31 32-31l93 0 750 0 93 0c18 0 32 14 32 31 0 17-14 31-32 31z m-93 563l0-498-750 0 0 498 750 0z" horiz-adv-x="1000" />

<glyph glyph-name="glyph-109" unicode="&#xe86c;" d="M938 788l-875 0c-35 0-63-28-63-63l0-562c0-35 28-63 63-63l312 0c0-45-2-104-19-125l-13 0c-17 0-30-14-30-31 0-18 13-32 30-32l314 0c17 0 31 14 31 32 0 17-14 31-31 31l-13 0c-17 21-19 80-19 125l313 0c34 0 62 28 62 63l0 562c0 35-28 63-62 63z m-500-688l-1 0c0 0 0 0 1 0l0 0z m125 0l0 0 0 0c0 0 0 0 0 0z m375 125l-875 0 0 500 875 0 0-500z" horiz-adv-x="1000" />

<glyph glyph-name="glyph-110" unicode="&#xe86d;" d="M938 538l-125 0c0 0-37 0-63 62-13 32-28 63-62 63l-250 0c-35 0-50-31-63-63-25-62-62-62-62-62l-63 0c0 34-28 62-62 62l-63 0c-34 0-62-28-62-62-35 0-63-28-63-63l0-500c0-35 28-63 63-63l875 0c34 0 62 28 62 63l0 258 0 55 0 187c0 35-28 63-62 63z m0-563l-875 0 0 250 284 0c15-106 105-187 216-187 112 0 204 85 216 195l159 0 0-258z m-532 281c0 86 70 157 157 157s156-71 156-157c0-86-70-156-156-156s-157 70-157 156z m372 32c-15 105-105 187-215 187s-201-82-216-187l-284 0 0 187 62 0 63 0 125 0c36 0 90 27 120 102 5 12 9 19 11 23l237 0c4-7 9-20 11-24 41-96 108-101 121-101l125 0 0-187-160 0z m-653 93a31 31 0 1 1 63 0 31 31 0 1 1-63 0z" horiz-adv-x="1000" />

<glyph glyph-name="glyph-111" unicode="&#xe86e;" d="M938 600l-875 0c-35 0-63-28-63-62l0-626c0-34 28-62 63-62l875 0c34 0 62 28 62 62l0 626c0 34-28 62-62 62z m-583-439l145-99 144 100 249-250-786 0 248 249z m-292-204l0 403 239-163-239-240z m634 241l241 165 0-406-241 241z m241 340l0-102-2 2-436-300-437 297 0 103 875 0z" horiz-adv-x="1000" />

<glyph glyph-name="glyph-112" unicode="&#xe86f;" d="M780 225l-23 63-67 0-380 0-66 0-24-63-95-250 750 0-95 250z m-493 0l426 0 72-187-569 0 71 187z m355 188l67 0-24 62-127 335c-9 24-32 40-58 40s-49-16-58-40l-127-335-24-62 67 0 284 0z m-142 375l119-313-237 0 118 313z m468-876l-936 0c-18 0-32-13-32-30s14-32 32-32l936 0c18 0 32 14 32 32s-14 30-32 30z" horiz-adv-x="1000" />

<glyph glyph-name="glyph-113" unicode="&#xe870;" d="M164-145c7-3 15-5 24-5 16 0 32 6 44 18l268 269 268-269c12-12 28-18 45-18 8 0 16 2 23 5 24 9 39 32 39 57l0 876c0 34-28 62-62 62l-625 0c-35 0-63-28-63-62l0-876c0-25 15-48 39-57z m336 370l-312-313 0 688 625 0 0-688-313 313z m313 563l0-125-625 0 0 125 625 0z" horiz-adv-x="1000" />

<glyph glyph-name="glyph-114" unicode="&#xe871;" d="M188-150l625 0c34 0 62 28 62 62l0 688c0 35-28 63-62 63l-126 0c-1 103-84 187-187 187s-186-84-187-187l-125 0c-35 0-63-28-63-63l0-688c0-34 28-62 63-62z m625 750l0-688-625 0 0 688 625 0z m-313 188c68 0 123-56 125-125l-250 0c2 69 57 125 125 125z m-94-313l188 0c17 0 31 14 31 31 0 18-14 32-31 32l-188 0c-17 0-31-14-31-32 0-17 14-31 31-31z" horiz-adv-x="1000" />

<glyph glyph-name="glyph-115" unicode="&#xe872;" d="M938 725l-875 0c-35 0-63-28-63-62l0-128 0-122 0-375c0-35 28-63 63-63l875 0c34 0 62 28 62 63l0 375 0 122 0 128c0 34-28 62-62 62z m0-687l-875 0 0 375 875 0 0-375z m-875 497l0 128 875 0 0-128-875 0z m93-435l313 0c17 0 31 14 31 31 0 18-14 32-31 32l-313 0c-17 0-31-14-31-32 0-17 14-31 31-31z m407 31a31 31 0 1 1 62 0 31 31 0 1 1-62 0z m125 0a31 31 0 1 1 62 0 31 31 0 1 1-62 0z m125 0a31 31 0 1 1 62 0 31 31 0 1 1-62 0z" horiz-adv-x="1000" />

<glyph glyph-name="glyph-116" unicode="&#xe873;" d="M188-88a63 63 0 1 1 125 0 63 63 0 1 1-125 0z m562 0a63 63 0 1 1 125 0 63 63 0 1 1-125 0z m-752 782c0-17 14-31 31-31l65 0 39-166 55-272c0-2 1-4 1-6l-32-143c-2-10 0-19 6-27 6-7 15-11 25-11l709 0c17 0 31 14 31 31s-14 31-31 31l-670 0 14 64c3 0 6-1 9-1l570 0c34 0 55 6 72 46l101 312c18 56-21 79-55 79l-750 0c-5 0-10-2-14-3l-24 104c-4 14-16 24-31 24l-90 0c-17 0-31-14-31-31z m191-156l744 0-100-307c-1-2-2-4-3-6-2 0-5 0-10 0l-570 0 0 6-1 6-60 301z" horiz-adv-x="1000" />

<glyph glyph-name="glyph-117" unicode="&#xe874;" d="M440 632c-66 66-149 72-207 14-58-58-53-141 14-207l357-358c12-12 32-12 44 0s13 32 0 44l-357 358c-32 32-53 80-14 119 39 38 87 18 119-14l397-398c114-114 143-167 75-235-69-69-142-52-251 58l-442 442c-72 72-122 188-28 282 112 111 239 2 275-35l406-406c12-12 32-12 44 0s12 32 0 45l-406 406c-123 122-262 136-363 34-102-102-91-251 28-370l441-442c38-38 118-118 211-118 42 0 86 16 129 60 124 124 10 239-74 323l-398 398z" horiz-adv-x="1000" />

<glyph glyph-name="glyph-118" unicode="&#xe875;" d="M908 787c0 0-1 0-2 0 0 0-1 0-1 0l-393 0c-10 0-31-15-34-18l-460-460c-24-24-24-63 0-88l353-353c12-12 28-18 44-18 16 0 32 6 44 18l460 460c3 3 19 22 19 34l0 394c0 18-13 31-30 31z m-33-413c-1-2-2-3-3-4l-457-458-353 353 458 457c1 1 2 2 4 3l351 0 0-351z m-125 257a31 31 0 1 1 63 0 31 31 0 1 1-63 0z" horiz-adv-x="1000" />

<glyph glyph-name="glyph-119" unicode="&#xe876;" d="M909 850c-1 0-1 0-1 0-1 0-1 0-1 0 0 0 0 0 0 0 0 0-1 0-1 0 0 0 0 0 0 0l-331 0c-9 0-31-15-34-18l-398-398c-24-24-24-64 0-88l50-50-50-49c-24-25-24-64 0-89l291-290c12-12 28-18 44-18 16 0 32 6 44 18l398 398c3 3 18 22 18 34l0 519c0 17-12 31-29 31z m-33-540c0 0-1 0-1 0 0 0 0 0 0 0l-397-398-291 290 50 50 197-197c12-12 28-18 44-18 16 0 32 6 44 18l354 354 0-99z m0 290l0-102c0 0-1-1-1-1l0 0c0 0 0 0 0 0l-397-397-291 290 396 395c1 1 2 2 4 3l289 0 0-188z m-125 94a31 31 0 1 1 62 0 31 31 0 1 1-62 0z" horiz-adv-x="1000" />

<glyph glyph-name="glyph-120" unicode="&#xe877;" d="M813 788l-125 0c0 34-28 62-63 62l-187 0c-35 0-63-28-63-62l-125 0c-34 0-62-28-62-63l687 0c0 35-28 63-62 63z m-625-876c0-34 28-62 62-62l563 0c34 0 62 28 62 62l0 751-687 0 0-751z m62 688l563 0 0-688-563 0 0 688z m94-62c-17 0-31-14-31-32l0-500c0-17 14-31 31-31s31 14 31 31l0 500c0 18-14 32-31 32z m187 0c-17 0-31-14-31-32l0-500c0-17 14-31 31-31s32 14 32 31l0 500c0 18-14 32-32 32z m188 0c-17 0-31-14-31-32l0-500c0-17 14-31 31-31s31 14 31 31l0 500c0 18-14 32-31 32z" horiz-adv-x="1000" />

<glyph glyph-name="glyph-121" unicode="&#xe878;" d="M307 839c-8 10-22 14-34 9-13-4-21-16-21-29l0-816c0-13 9-25 21-29 4-1 7-2 10-2 10 0 19 5 25 13l140 188 97-277c12-36 51-55 87-42s54 51 42 87l-96 272 219-43c13-2 26 4 33 15 7 12 5 26-3 36l-520 618z m176-544c-12 2-24-2-31-12l-137-185 0 635 407-484-239 46z" horiz-adv-x="1000" />

<glyph glyph-name="glyph-122" unicode="&#xe879;" d="M438 44l0-132-94 0c-17 0-31-14-31-31 0-17 14-31 31-31l155 0 2 0 155 0c18 0 32 14 32 31 0 17-14 31-32 31l-93 0 0 132c130 26 250 131 250 306l0 94c0 17-14 31-32 31s-31-14-31-31l0-94c0-164-126-250-250-250-120 0-250 78-250 250l0 94c0 17-14 31-31 31s-31-14-31-31l0-94c0-177 117-282 250-306z m62 119c103 0 188 84 188 187l0 313c0 103-85 187-188 187-103 0-187-84-187-187l0-313c0-103 84-187 187-187z m-125 500c0 69 56 125 125 125s125-56 125-125l0-313c0-69-56-125-125-125s-125 56-125 125l0 313z" horiz-adv-x="1000" />

<glyph glyph-name="glyph-123" unicode="&#xe87a;" d="M500 850c-276 0-500-224-500-500s224-500 500-500 500 224 500 500-224 500-500 500z m0-938c-241 0-437 197-437 438s196 438 437 438 438-197 438-438-197-438-438-438z m202 683l-116-72-78-49c63-4 112-53 116-116l49 78 72 116c8 13 6 29-4 39-10 10-27 12-39 4z m-326-253l-49-78-72-116c-8-13-6-29 4-39 6-6 14-9 22-9 6 0 12 2 17 5l116 72 78 49c-63 4-112 53-116 116z m132 132c-3 0-5 1-8 1-69 0-125-56-125-125 0-3 1-5 1-8 4-63 53-112 116-116 3 0 5-1 8-1 69 0 125 56 125 125 0 3-1 5-1 8-4 63-53 112-116 116z m-70-124c0 34 28 63 62 63s63-29 63-63-29-62-63-62-62 28-62 62z" horiz-adv-x="1000" />

<glyph glyph-name="glyph-124" unicode="&#xe87b;" d="M475 337c90 0 163 73 163 163 0 89-73 163-163 163s-162-74-162-163c0-90 73-163 162-163z m0 263c56 0 101-45 101-100s-45-101-101-101-100 45-100 101 45 100 100 100z m-22-733c5-6 10-10 15-12 0 0 0 0 0 0 3-2 7-3 10-3 3 0 6 1 10 3 0 0 0 0 0 0 5 2 10 6 15 12 0 0 291 316 320 590 2 14 3 28 3 43 0 193-157 350-351 350s-350-157-350-350c0-15 1-30 3-44 30-274 325-589 325-589z m22 921c159 0 288-130 288-288 0-11 0-22-2-37-23-209-220-456-283-531-65 76-265 321-288 532-2 14-2 25-2 36 0 158 129 288 287 288z" horiz-adv-x="1000" />

<glyph glyph-name="glyph-125" unicode="&#xe87c;" d="M272 295c-14-15-19-36-14-56 4-19 18-36 36-43 45-19 120-31 206-33 0 0 0 0 0 0l0-188c0-35 14-125 31-125s32 90 32 125l0 188c0 0-1 0-1 0 86 2 162 14 206 33 19 7 32 24 37 43 4 20-1 41-14 56-26 29-70 45-103 53l0 324 0 0c32 11 60 25 82 41 19 14 28 37 25 60s-20 42-42 50c-31 10-100 27-222 27-128 0-199-20-224-28-21-8-37-27-41-50-3-22 6-45 24-59 23-17 51-31 85-42l0 0 0-323c-33-8-78-24-103-53z m122 435c-32 11-53 23-66 33 33 11 100 25 203 25 101 0 168-13 202-25-13-9-34-21-66-32l-42-14 0-417 47-12c35-9 61-22 72-35-29-12-99-28-213-28s-184 16-212 28c11 13 37 26 71 35l48 12 0 416-44 14z" horiz-adv-x="1000" />

<glyph glyph-name="glyph-126" unicode="&#xe87d;" d="M951 724l-281 125c-5 1-9 1-14 1-4 0-8 0-12-1l-301-123-267 123c-4 1-9 1-13 1-15 0-28-5-40-14-14-12-23-29-23-48l0-750c0-30 20-55 49-62l280-125c4-1 9-1 13-1 5 0 9 0 13 1l301 123 268-123c4-1 9-1 14-1 14 0 27 5 39 14 14 12 23 30 23 48l0 751c0 29-20 54-49 61z m-576-49l250 100 0-750-250-100 0 750z m-312 113l250-112 0-750-250 112 0 750z m875-876l-250 112 0 750 250-111 0-751z" horiz-adv-x="1000" />

<glyph glyph-name="glyph-127" unicode="&#xe87e;" d="M791 788l-588 0c-34 0-62-24-78-63l-125-436 0-33 0-65 0-247c0-18 14-32 31-32l938 0c17 0 31 14 31 32l0 250 0 62 0 29-125 440c-18 39-49 63-84 63z m-607-84c3 7 10 21 19 21l588 0c9 0 18-9 25-22l118-415-278 0c-17 0-31-14-31-32l0-93-250 0 0 93c0 18-14 32-31 32l-279 0 119 416z m754-729l-875 0 0 218 0 32 250 0 0-94c0-17 14-31 31-31l312 0c18 0 32 14 32 31l0 94 250 0 0-30 0-220z" horiz-adv-x="1000" />

<glyph glyph-name="glyph-128" unicode="&#xe87f;" d="M938 538l-250 0c0-35-28-63-63-63l313 0 0-125-313 0c35 0 63-28 63-62l250 0 0-376-875 0 0 376 250 0c0 34 28 62 62 62l-312 0 0 125 312 0c-34 0-62 28-62 63l-250 0c-35 0-63-28-63-63l0-125 0-62 0-376c0-34 28-62 63-62l875 0c34 0 62 28 62 62l0 376 0 62 0 125c0 35-28 63-62 63z m-563-63l250 0c35 0 63 28 63 63l0 62c0 35-28 63-63 63l-250 0c-34 0-62-28-62-63l0-62c0-35 28-63 62-63z m0 125l250 0 0-62-250 0 0 62z m-62-312l0-63c0-34 28-62 62-62l250 0c35 0 63 28 63 62l0 63c0 34-28 62-63 62l-250 0c-34 0-62-28-62-62z m312-63l-250 0 0 63 250 0 0-63z" horiz-adv-x="1000" />

<glyph glyph-name="glyph-129" unicode="&#xe880;" d="M845 850l-282 0-282 0-123 0c-87 0-156-69-158-155l0 0 0-130 0-90 0-342 0-78 0-47c0-87 71-158 158-158l28 0 252 0 85 0 42 0 124 0c34 0 61 28 61 62l0 657c0 17-13 31-30 31l-562 0c-53 0-95 40-95 92 0 53 42 96 95 96l123 0 292 0 240 0 0-719c0-17 15-31 32-31s30 14 30 31l0 750c0 17-13 31-30 31z m-687-312l530 0 1-626-124 0-42 0-85 0-252 0-28 0c-53 0-95 43-95 96l0 47 0 78 0 342 0 90 0 3c26-19 59-30 95-30z" horiz-adv-x="1000" />

<glyph glyph-name="glyph-130" unicode="&#xe881;" d="M996 674c-8 26-30 45-58 45l-63 0 0-63 0-34c0-52-42-94-94-94s-93 42-93 94l0 34 0 63-376 0 0-63 0-34c0-52-42-94-94-94-51 0-93 42-93 94l0 34 0 63-62 0c-29 0-51-19-59-45l-4 0 0-18 0-195 0-549c0-34 28-62 63-62l875 0c34 0 62 28 62 62l0 549 0 195 0 18-4 0z m-58-762l-875 0 0 501 875 0 0-501z m-720 678c18 0 32 14 32 32l0 197c0 17-14 31-32 31s-31-14-31-31l0-197c0-18 14-32 31-32z m563 0c18 0 32 14 32 32l0 197c0 17-14 31-32 31s-31-14-31-31l0-197c0-18 14-32 31-32z" horiz-adv-x="1000" />

<glyph glyph-name="glyph-131" unicode="&#xe882;" d="M938 850l-875 0c-35 0-63-28-63-62l0-876c0-34 28-62 63-62l875 0c34 0 62 28 62 62l0 876c0 34-28 62-62 62z m-750-562l0-125-125 0 0 125 125 0z m-125 125l0 125 125 0 0-125-125 0z m187-188l500 0 0-313-500 0 0 313z m500 63l-500 0 0 500 500 0 0-500z m63 0l125 0 0-125-125 0 0 125z m0 125l0 125 125 0 0-125-125 0z m0 250l0 125 125 0 0-125-125 0z m-625 0l-125 0 0 125 125 0 0-125z m-125-625l125 0 0-126-125 0 0 126z m750 0l125 0 0-126-125 0 0 126z" horiz-adv-x="1000" />

<glyph glyph-name="glyph-132" unicode="&#xe883;" d="M999 728c-3 32-29 60-61 60l-875 0c-33 0-59-28-62-60l-1 0 0-5 0-123 0-443 0-57 0-188c0-34 28-62 63-62l875 0c34 0 62 28 62 62l0 688 0 123 0 5-1 0z m-624-315l0 187 250 0 0-187-250 0z m250-63l0-193-250 0 0 193 250 0z m-312 250l0-187-250 0 0 187 250 0z m-250-250l250 0 0-193-250 0 0 193z m0-438l0 188 250 0 0-188-250 0z m312 0l0 188 250 0 0-188-250 0z m563 0l-250 0 0 188 250 0 0-188z m0 245l-250 0 0 193 250 0 0-193z m0 256l-250 0 0 187 250 0 0-187z" horiz-adv-x="1000" />

<glyph glyph-name="glyph-133" unicode="&#xe884;" d="M813 850l-750 0c-35 0-63-28-63-62l0-876c0-34 28-62 63-62l750 0c34 0 62 28 62 62l0 876c0 34-28 62-62 62z m-750-62l125 0 0-876-125 0 0 876z m750-876l-563 0 0 876 563 0 0-876z m-380 603a95 95 0 1 1 189 0 95 95 0 1 1-189 0z m97-133c-86 0-155-93-155-207s310-115 310 0-70 207-155 207z m408 406l62 0 0-188-62 0z m0-250l62 0 0-188-62 0z m0-250l62 0 0-188-62 0z" horiz-adv-x="1000" />

<glyph glyph-name="glyph-134" unicode="&#xe885;" d="M938 225l0 125c0 287-221 438-438 438-212 0-437-154-437-438l0-125c-35 0-63-28-63-62l0-125c0-35 28-63 63-63 0-35 28-63 62-63s63 28 63 63l0 250c0 35-28 63-63 63l0 62c0 246 189 375 375 375 181 0 375-117 375-375l0-62c-34 0-62-28-62-63l0-250c0-35 28-63 62-63s63 28 63 63c34 0 62 28 62 63l0 125c0 34-28 62-62 62z" horiz-adv-x="1000" />

<glyph glyph-name="glyph-135" unicode="&#xe886;" d="M500 850c-128 0-256-49-354-146-195-196-195-512 0-708 98-97 226-146 354-146s256 49 354 146c195 196 195 512 0 708-98 97-226 146-354 146z m-177-677c-47 47-73 110-73 177 0 67 26 130 73 177 47 47 110 73 177 73s130-26 177-73c47-47 73-110 73-177 0-67-26-130-73-177-47-47-110-73-177-73s-130 26-177 73z m370 569l-96-96c-32 10-64 17-97 17-30 0-59-6-88-15l-98 98c58 27 121 42 186 42 68 0 134-16 193-46z m-589-206l98-98c-18-60-17-125 2-185l-96-96c-30 59-45 125-45 193 0 65 14 128 41 186z m87-495l0 0c0 0 0 0 0 0l0 0z m131-90l98 98c26-7 53-11 80-11 30 0 59 5 88 14l98-98c-58-27-121-42-186-42-63 0-123 14-178 39z m574 213l-98 98c17 55 17 113 3 168l98 98c52-116 50-249-3-364z" horiz-adv-x="1000" />

<glyph glyph-name="glyph-136" unicode="&#xe887;" d="M500-150c161 0 304 77 396 195l-396 305 0 500c-276 0-500-224-500-500s224-500 500-500z m-62 933l0-433c0-19 9-38 24-49l342-265c-81-79-189-124-304-124-241 0-437 197-437 438 0 220 163 403 375 433z m148 59l0-448 357-275c36 69 57 148 57 231 0 247-179 451-414 492z" horiz-adv-x="1000" />

<glyph glyph-name="glyph-137" unicode="&#xe888;" d="M937 850c-35 0-64-28-64-63l0-148c-71 87-153 211-380 211-272 0-493-221-493-493 0-272 221-494 493-494 214 0 402 137 469 340 11 34-7 70-41 81-34 11-70-7-81-41-50-150-189-251-347-251-201 0-364 164-364 365s163 363 364 363c143 0 222-88 286-181l-159 0c-35 0-63-28-63-63 0-35 28-64 63-64l317 0c35 0 63 29 63 64l0 311c0 35-28 63-63 63z" horiz-adv-x="1000" />

<glyph glyph-name="glyph-138" unicode="&#xe889;" d="M299 723c36 37 96 37 132 0l335-335c17 63 2 132-47 181l-221 221c-74 73-192 73-266 0l-49-50c-74-73-74-192 0-265l221-221c49-49 118-65 180-48l-335 335c-37 37-37 96 0 133l50 49z m203-813c74-73 192-73 266 0l49 50c74 74 74 192 0 265l-221 221c-49 49-118 65-180 48l335-335c37-37 37-96 0-133l-50-49c-36-37-96-37-132 0l-335 335c-17-62-1-132 47-181l221-221z" horiz-adv-x="1000" />

<glyph glyph-name="glyph-139" unicode="&#xe88a;" d="M236 357c40-40 98-54 152-38l-295 295c-10 10-15 24-15 41 0 27 14 62 33 81 25 25 93 53 125 22l295-296c4 15 6 30 6 45 0 41-15 79-44 107l-200 201c-60 60-180 37-239-22-34-34-55-87-55-138 0-39 13-74 36-98l201-200z m528-14c-40 40-98 54-152 38l296-295c9-10 14-24 14-41 0-27-14-62-33-81-25-25-93-53-125-22l-295 296c-4-15-6-30-6-45 0-40 16-79 44-107l200-201c60-60 180-37 239 22 34 34 55 87 55 138 0 39-13 74-36 98l-201 200z m-478 221c-8-8-12-19-12-30s4-22 12-30l368-368c17-16 43-16 60 0 8 8 12 19 12 30s-4 22-12 30l-368 368c-16 16-43 16-60 0z" horiz-adv-x="1000" />

<glyph glyph-name="glyph-140" unicode="&#xe88b;" d="M844 137a6 6 0 1 1 12 0 6 6 0 1 1-12 0z m-125-130a11 11 0 1 1 22 0 11 11 0 1 1-22 0z m-169-66a17 17 0 1 1 34 0 17 17 0 1 1-34 0z m-183 9a23 23 0 1 1 46 0 23 23 0 1 1-46 0z m-161 83a28 28 0 1 1 56 0 28 28 0 1 1-56 0z m-112 141a34 34 0 1 1 68 0 34 34 0 1 1-68 0z m-42 173a40 40 0 1 1 79 0 40 40 0 1 1-79 0z m34 172a45 45 0 1 1 91 0 45 45 0 1 1-91 0z m104 138a51 51 0 1 1 102 0 51 51 0 1 1-102 0z m152 80a57 57 0 1 1 114 0 57 57 0 1 1-114 0z m171 5a62 62 0 1 1 125 0 62 62 0 1 1-125 0z m157-71a68 68 0 1 1 136 0 68 68 0 1 1-136 0z m111-132a74 74 0 1 1 147 0 74 74 0 1 1-147 0z m44-171a79 79 0 1 1 159 0 79 79 0 1 1-159 0z" horiz-adv-x="1000" />

<glyph glyph-name="glyph-141" unicode="&#xe88c;" d="M500 850c-276 0-500-224-500-500s224-500 500-500 500 224 500 500-224 500-500 500z m0-125c207 0 375-168 375-375 0-81-26-156-70-217l-522 522c61 44 136 70 217 70z m-375-375c0 81 26 156 70 217l522-522 0 0c-61-44-136-70-217-70-207 0-375 168-375 375z" horiz-adv-x="1000" />

<glyph glyph-name="glyph-142" unicode="&#xe88d;" d="M938 725l-875 0c-35 0-63-28-63-62l0-125 1000 0 0 125c0 34-28 62-62 62z m0-125l-875 0 0 63 875 0 0-63z m-875-688c0-34 28-62 62-62l750 0c35 0 63 28 63 62l0 563-875 0 0-563z m62 501l750 0 0-501-750 0 0 501z m531-63l-312 0c-17 0-31-14-31-31 0-17 14-31 31-31l312 0c18 0 32 14 32 31 0 17-14 31-32 31z" horiz-adv-x="1000" />

<glyph glyph-name="glyph-143" unicode="&#xe88e;" d="M1000 418c-3 153-128 290-281 290-89 0-167-47-219-115-52 68-130 115-219 115-153 0-278-137-280-290l-1 0c0-1 0-2 0-3 0-1 0-1 0-2 0-4 1-8 1-12 14-391 495-551 495-551s488 160 503 551c0 4 1 7 1 12 0 1 0 1 0 2 0 1 0 2 0 3l0 0z m-64-15c-11-300-353-453-440-486-85 33-422 185-432 487 0 3-1 6-1 9 0 1 0 2 0 4 2 124 102 228 218 228 64 0 126-32 169-90 12-15 30-24 50-24s38 9 50 24c43 58 105 90 169 90 116 0 216-104 218-228 0-2 0-3 0-4 0-3-1-6-1-10z" horiz-adv-x="1000" />

<glyph glyph-name="glyph-144" unicode="&#xe88f;" d="M996 445c-7 23-27 40-50 43l-269 39-121 244c-10 22-32 35-56 35s-45-13-56-35l-120-244-270-39c-23-3-43-20-50-43-8-22-2-47 16-64l194-190-46-268c-4-23 6-47 25-61 11-8 24-12 37-12 10 0 20 2 29 7l241 127 241-127c9-5 19-7 29-7 13 0 26 4 37 12 19 14 29 38 25 61l-46 268 195 190c17 17 23 42 15 64z m-278-232l52-301-270 142-270-142 52 301-219 213 302 44 135 274 135-274 302-44-219-213z" horiz-adv-x="1000" />

<glyph glyph-name="glyph-145" unicode="&#xe890;" d="M996 445c-7 23-27 40-50 43l-269 39-121 244c-10 22-32 35-56 35s-45-13-56-35l-120-244-270-39c-23-3-43-20-50-43-8-22-2-47 16-64l194-190-46-268c-4-23 6-47 25-61 11-8 24-12 37-12 10 0 20 2 29 7l241 127 241-127c9-5 19-7 29-7 13 0 26 4 37 12 19 14 29 38 25 61l-46 268 195 190c17 17 23 42 15 64z m-278-232l52-301-270 142 0 690 135-274 302-44-219-213z" horiz-adv-x="1000" />

<glyph glyph-name="glyph-146" unicode="&#xe891;" d="M649 482l-153 311-154-311-342-49 248-242-59-341 307 161 306-161-59 341 248 242z" horiz-adv-x="1000" />

<glyph glyph-name="glyph-147" unicode="&#xe892;" d="M500 11l0 782-153-311-342-49 247-242-58-341z" horiz-adv-x="1000" />

<glyph glyph-name="glyph-148" unicode="&#xe893;" d="M27 9c-37-37-37-96 0-133 18-18 42-27 66-27 24 0 48 9 66 27l308 308-133 133-307-308z m769 571l134 69 70 136-65 65-136-70-69-134-164-163 67-67z m29-356c-4 0-8 1-12 1-23 0-45-5-65-12l-385 385c7 20 12 42 12 65 0 4-1 8-1 12-7 98-87 175-186 175-29 0-56-7-81-19l125-124c6-7 11-15 14-23 8-22 4-48-14-66-12-12-28-18-44-18-8 0-15 2-22 4-8 3-16 8-23 14l-124 125c-12-25-19-52-19-80 0-100 77-180 175-187 4 0 8-1 13-1 22 0 44 5 64 12l385-385c-7-20-12-42-12-64 0-5 1-9 1-13 7-98 87-175 187-175 28 0 55 7 80 19l-125 124c-6 7-11 15-14 23-8 22-3 48 14 66 13 12 29 18 45 18 7 0 14-2 21-4 8-3 16-8 23-14l124-125c12 25 19 52 19 81 0 99-77 179-175 186z" horiz-adv-x="1000" />

<glyph glyph-name="glyph-149" unicode="&#xe894;" d="M813 100c7 0 14-2 21-4 8-3 16-8 23-14l124-125c12 25 19 52 19 81 0 99-77 179-175 186-4 0-8 1-12 1-23 0-45-5-65-12l-385 385c7 20 12 42 12 65 0 4-1 8-1 12-7 98-87 175-186 175-29 0-56-7-81-19l125-124c6-7 11-15 14-23 8-22 4-48-14-66-12-12-28-18-44-18-8 0-15 2-22 4-8 3-16 8-23 14l-124 125c-12-25-19-52-19-80 0-100 77-180 175-187 4 0 8-1 13-1 22 0 44 5 64 12l385-385c-7-20-12-42-12-64 0-5 1-9 1-13 7-98 87-175 187-175 28 0 55 7 80 19l-125 124c-6 7-11 15-14 23-8 22-3 48 14 66 13 12 29 18 45 18z" horiz-adv-x="1000" />

<glyph glyph-name="glyph-150" unicode="&#xe895;" d="M860 454c-8 27-18 53-32 78l62 130c-23 29-49 55-78 78l-130-62c-25 14-51 24-78 32l-49 137c-18 2-36 3-55 3s-37-1-55-3l-49-137c-27-8-53-18-77-32l-131 62c-29-23-55-49-78-78l62-130c-14-25-24-51-32-78l-137-49c-2-18-3-36-3-55s1-37 3-55l137-49c8-27 18-53 32-78l-62-130c23-29 49-55 78-78l131 62c24-14 50-24 77-32l49-137c18-2 36-3 55-3s37 1 55 3l49 137c27 8 53 18 78 32l130-62c29 23 55 49 78 78l-62 131c14 24 24 50 32 77l137 49c2 18 3 36 3 55s-1 37-3 55l-137 49z m-360-354c-138 0-250 112-250 250 0 138 112 250 250 250s250-112 250-250c0-138-112-250-250-250z m-125 250a125 125 0 1 1 250 0 125 125 0 1 1-250 0z" horiz-adv-x="1000" />

<glyph glyph-name="glyph-151" unicode="&#xe896;" d="M31 313l108 4c13-17 28-32 44-46l-7-108c12-7 24-13 37-19 13-5 26-10 39-14l74 80c21-3 42-3 63-1l72-82c26 7 52 18 76 31l-3 108c16 13 31 28 45 44l108-7c7 12 13 24 19 37 5 13 10 26 14 39l-80 74c3 21 3 42 1 63l82 72c-7 26-18 52-31 77l-108-4c-13 16-28 31-44 45l7 108c-12 7-24 13-37 19-13 5-26 10-39 14l-74-80c-21 3-42 3-63 1l-72 82c-26-7-52-18-77-31l4-108c-16-13-31-28-45-44l-108 7c-7-12-13-24-19-37-5-13-10-26-14-39l80-74c-3-21-3-42-1-63l-82-72c7-26 18-52 31-76z m405 348c95-41 139-152 98-247s-152-139-247-98-139 152-98 247 152 139 247 98z m-168-172a94 94 0 1 1 187 0 94 94 0 1 1-187 0z m671-375l-26 9 12 25 27 57c-10 13-22 24-34 35l-57-28-25-11-9 25-22 60c-8 1-16 2-24 2s-16-1-24-2l-21-60-9-26-25 12-57 27c-13-10-24-21-34-34l27-57 12-25-26-9-60-21c-1-8-1-16-1-24s0-16 1-24l60-22 26-9-12-25-27-57c10-12 21-24 34-34l57 27 25 12 9-26 21-60c8-1 16-1 24-1s16 0 24 1l22 60 9 26 25-12 57-27c12 10 24 22 34 34l-27 57-12 25 26 9 60 22c1 8 1 16 1 24s0 16-1 24l-60 21z m-158-92c-26 0-47 21-47 47 0 26 21 47 47 47s47-21 47-47c0-26-21-47-47-47z" horiz-adv-x="1000" />

<glyph glyph-name="glyph-152" unicode="&#xe897;" d="M531 788c-259 0-468-210-468-469s209-469 468-469 469 210 469 469-210 469-469 469z m210-429c-12-12-32-12-44 0l-134 134 0-487c0-17-14-31-32-31s-31 14-31 31l0 487-134-134c-12-12-32-12-44 0-12 12-12 32 0 44l187 188c0 0 0 0 0 0 3 3 7 5 10 7 8 3 17 3 24 0 4-2 7-4 10-7l188-188c12-12 12-32 0-44z" horiz-adv-x="1000" />

<glyph glyph-name="glyph-153" unicode="&#xe898;" d="M531 788c-259 0-468-210-468-469s209-469 468-469 469 210 469 469-210 469-469 469z m210-554l-188-187c-2-3-6-6-10-7-7-3-16-3-24 0-3 1-7 4-9 6-1 1-1 1-1 1l-187 187c-12 12-12 32 0 44 12 13 32 13 44 0l134-134 0 487c0 18 14 32 31 32s32-14 32-32l0-487 134 134c12 13 32 13 44 0 12-12 12-32 0-44z" horiz-adv-x="1000" />

<glyph glyph-name="glyph-154" unicode="&#xe899;" d="M531 788c-259 0-468-210-468-469s209-469 468-469 469 210 469 469-210 469-469 469z m344-469c0-17-14-31-31-31l-487 0 134-135c12-12 12-32 0-44-12-12-32-12-44 0l-188 188c0 0 0 0 0 0-3 3-5 6-7 10-1 4-2 8-2 12 0 0 0 0 0 0l0 0c0 4 1 8 2 12 2 3 4 7 7 10 0 0 0 0 0 0l188 187c12 13 32 13 44 0 12-12 12-32 0-44l-134-134 487 0c17 0 31-14 31-31z" horiz-adv-x="1000" />

<glyph glyph-name="glyph-155" unicode="&#xe89a;" d="M531 788c-259 0-468-210-468-469s209-469 468-469 469 210 469 469-210 469-469 469z m282-469c0 0 0 0 0 0 0-4-1-8-3-12-1-4-4-7-7-10l-187-188c-12-12-32-12-44 0-12 12-12 32 0 44l134 135-487 0c-17 0-31 14-31 31 0 17 14 31 31 31l487 0-134 134c-13 12-13 32 0 44 12 13 32 13 44 0l187-187c3-3 6-6 7-10 2-4 3-8 3-12l0 0z" horiz-adv-x="1000" />

<glyph glyph-name="glyph-156" unicode="&#xe89b;" d="M200 650c-183-183-183-480 0-663 183-183 480-183 663 0 183 183 183 480 0 663-183 183-480 183-663 0z m564-564c-13-12-32-12-45 0l-344 345 0-190c0-17-14-31-31-31s-31 14-31 31l0 265 0 0c0 4 0 8 2 12 1 4 4 7 6 10 1 0 1 0 1 0 0 0 0 0 0 1 3 2 6 5 10 6 4 2 8 3 12 3l265 0c17 0 31-14 31-32 0-17-14-31-31-31l-190 0 345-344c12-13 12-32 0-45z" horiz-adv-x="1000" />

<glyph glyph-name="glyph-157" unicode="&#xe89c;" d="M200 650c-183-183-183-480 0-663 183-183 480-183 663 0 183 183 183 480 0 663-183 183-480 183-663 0z m550-144l0-265c0-17-14-31-31-31s-31 14-31 31l0 190-345-345c-12-12-32-12-44 0-12 13-12 32 0 45l344 344-189 0c-18 0-32 14-32 31 0 18 14 32 32 32l265 0c4 0 8-1 12-3 7-3 13-9 17-17 1-4 2-8 2-12l0 0z" horiz-adv-x="1000" />

<glyph glyph-name="glyph-158" unicode="&#xe89d;" d="M200 650c-183-183-183-480 0-663 183-183 480-183 663 0 183 183 183 480 0 663-183 183-480 183-663 0z m550-519c0 0 0 0 0 0 0-4-1-8-2-12-4-7-10-13-17-17-4-1-8-2-12-2l-265 0c-18 0-32 14-32 31 0 18 14 32 32 32l189 0-344 344c-12 12-12 32 0 44s32 12 44 0l345-344 0 189c0 18 14 32 31 32s31-14 31-32l0-265z" horiz-adv-x="1000" />

<glyph glyph-name="glyph-159" unicode="&#xe89e;" d="M200 650c-183-183-183-480 0-663 183-183 480-183 663 0 183 183 183 480 0 663-183 183-480 183-663 0z m564-143l-345-344 190 0c17 0 31-14 31-32 0-17-14-31-31-31l-265 0c-4 0-8 1-12 2-4 2-7 4-10 7 0 0 0 0 0 0 0 0 0 0-1 1-2 2-5 6-6 9-2 4-2 8-2 12 0 0 0 0 0 0l0 265c0 18 14 32 31 32s31-14 31-32l0-189 344 344c13 12 32 12 45 0s12-32 0-44z" horiz-adv-x="1000" />

<glyph glyph-name="glyph-160" unicode="&#xe89f;" d="M938 850l-875 0c-35 0-63-28-63-62l0-876c0-34 28-62 63-62l875 0c34 0 62 28 62 62l0 876c0 34-28 62-62 62z m-500-594l0-250c0-17-14-31-32-31s-31 14-31 31l0 175-197-197c-12-12-32-12-44 0-12 12-12 32 0 44l197 197-175 0c-17 0-31 14-31 31 0 18 14 32 31 32l250 0c4 0 8-1 12-3 8-3 14-9 17-17 2-4 3-8 3-12l0 0z m406 219c17 0 31-14 31-31 0-17-14-31-31-31l-250 0c-4 0-8 0-12 2-4 1-7 4-10 7 0 0 0 0 0 0 0 0 0 0-1 0-2 3-5 6-6 10-2 4-2 8-2 12 0 0 0 0 0 0l0 250c0 17 14 31 31 31s31-14 31-31l0-175 197 197c12 12 32 12 44 0 12-12 12-32 0-44l-197-197 175 0z" horiz-adv-x="1000" />

<glyph glyph-name="glyph-161" unicode="&#xe8a0;" d="M938 850l-875 0c-35 0-63-28-63-62l0-876c0-34 28-62 63-62l875 0c34 0 62 28 62 62l0 876c0 34-28 62-62 62z m-532-812c18 0 32-14 32-32 0-17-14-31-32-31l-250 0c-4 0-8 1-12 2-3 2-7 4-10 7 0 0 0 0 0 0 0 0 0 0 0 1-3 2-5 6-7 9-1 4-2 8-2 12 0 0 0 0 0 0l0 250c0 18 14 32 31 32s32-14 32-32l0-174 196 196c12 13 32 13 44 0 13-12 13-32 0-44l-196-196 174 0z m469 656l0-250c0-17-14-31-31-31s-31 14-31 31l0 174-197-196c-12-13-32-13-44 0-12 12-12 32 0 44l196 197-174 0c-17 0-31 14-31 31 0 17 14 31 31 31l250 0c4 0 8-1 12-2 7-4 13-10 17-17 1-4 2-8 2-12l0 0z" horiz-adv-x="1000" />

<glyph glyph-name="glyph-162" unicode="&#xe8a1;" d="M531-150c259 0 469 210 469 469s-210 469-469 469-468-210-468-469 209-469 468-469z m-225 413l203 203c6 6 14 9 22 9 8 0 16-3 22-9l203-203c12-12 12-32 0-44-12-12-32-12-44 0l-181 180-180-180c-13-12-32-12-45 0-12 12-12 32 0 44z" horiz-adv-x="1000" />

<glyph glyph-name="glyph-163" unicode="&#xe8a2;" d="M531 788c-259 0-468-210-468-469s209-469 468-469 469 210 469 469-210 469-469 469z m225-413l-203-203c-6-6-14-9-22-9-8 0-16 3-22 9l-203 203c-12 12-12 32 0 44 13 12 32 12 45 0l180-181 181 181c12 12 32 12 44 0 12-12 12-32 0-44z" horiz-adv-x="1000" />

<glyph glyph-name="glyph-164" unicode="&#xe8a3;" d="M531 788c-259 0-468-210-468-469s209-469 468-469 469 210 469 469-210 469-469 469z m100-650c12-12 12-32 0-44-12-12-32-12-44 0l-203 203c-6 6-9 14-9 22 0 8 3 16 9 22l203 203c12 12 32 12 44 0 12-13 12-32 0-45l-180-180 180-181z" horiz-adv-x="1000" />

<glyph glyph-name="glyph-165" unicode="&#xe8a4;" d="M531 788c-259 0-468-210-468-469s209-469 468-469 469 210 469 469-210 469-469 469z m147-491l-203-203c-12-12-32-12-44 0-12 12-12 32 0 44l181 181-181 180c-12 13-12 32 0 45 12 12 32 12 44 0l203-203c6-6 9-14 9-22 0-8-3-16-9-22z" horiz-adv-x="1000" />

<glyph glyph-name="glyph-166" unicode="&#xe8a5;" d="M531 788c-259 0-468-210-468-469s209-469 468-469 469 210 469 469-210 469-469 469z m233-682c-12-12-32-12-44 0l-188 166-187-166c-12-12-32-12-44 0-12 12-12 32 0 44l209 185c6 7 14 10 22 10 9 0 17-3 23-10l209-184c12-13 12-33 0-45z m0 224c-12-12-32-12-44 0l-188 166-187-166c-12-12-32-12-44 0-13 12-13 32 0 45l209 185c6 6 14 9 22 9 9 0 17-3 23-9l209-185c12-13 12-33 0-45z" horiz-adv-x="1000" />

<glyph glyph-name="glyph-167" unicode="&#xe8a6;" d="M533 783c-257 0-466-209-466-466s209-467 466-467 467 209 467 467-209 466-467 466z m229-520l-209-185c-6-6-15-9-23-9-8 0-16 3-23 9l-209 185c-12 12-12 32 0 44 13 13 33 13 45 0l187-165 187 165c13 13 33 13 45 0s12-32 0-44z m0 224l-209-185c-6-6-15-9-23-9-8 0-16 3-23 9l-209 185c-12 12-12 32 0 44 13 13 33 13 45 1l187-166 187 166c13 12 33 12 45 0s12-33 0-45z" horiz-adv-x="1000" />

<glyph glyph-name="glyph-168" unicode="&#xe8a7;" d="M534 783c-258 0-467-209-467-466 0-258 209-467 467-467 257 0 466 209 466 467 0 257-209 466-466 466z m-14-695c-12-12-32-12-45 0l-185 209c-6 7-9 15-9 23 0 8 3 16 9 23l185 209c13 12 33 12 45 0s12-33 0-45l-166-187 166-187c12-13 12-33 0-45z m224 45c12-13 12-33 0-45s-32-12-44 0l-185 209c-7 7-10 15-10 23 0 8 3 16 10 23l185 209c12 12 32 12 44 0s12-33 0-45l-166-187 166-187z" horiz-adv-x="1000" />

<glyph glyph-name="glyph-169" unicode="&#xe8a8;" d="M534 783c-258 0-467-209-467-466s209-467 467-467 466 209 466 467-209 466-466 466z m-215-697c-13 12-13 32 0 44l165 188-165 187c-13 12-13 32 0 44s32 13 44 0l185-209c6-6 9-14 9-22 0-9-3-17-9-23l-185-209c-12-12-32-12-44 0z m453 209l-185-209c-12-12-32-12-44 0s-13 32 0 44l165 188-165 187c-13 12-13 32 0 44s32 13 44 0l185-209c6-6 9-14 9-22 0-9-3-17-9-23z" horiz-adv-x="1000" />

<glyph glyph-name="glyph-170" unicode="&#xe8a9;" d="M531 788c-259 0-468-210-468-469s209-469 468-469 469 210 469 469-210 469-469 469z m210-552l0 0c-5-7-12-11-19-11l-382 0c-8 0-15 4-20 11 0 0 0 0 0 0-11 13-11 35 0 49l191 241c0 0 0 1 1 1 10 14 27 14 38 0l191-242c11-14 11-36 0-49z" horiz-adv-x="1000" />

<glyph glyph-name="glyph-171" unicode="&#xe8aa;" d="M531 788c-259 0-468-210-468-469s209-469 468-469 469 210 469 469-210 469-469 469z m210-435l-191-242c0 0 0 0 0-1-11-13-28-13-39 0l-191 243c-11 13-11 35 0 49l0 0c5 6 12 11 20 11l382 0c7 0 14-5 19-11 0 0 0 0 0 0 11-14 11-36 0-49z" horiz-adv-x="1000" />

<glyph glyph-name="glyph-172" unicode="&#xe8ab;" d="M531 788c-259 0-468-210-468-469s209-469 468-469 469 210 469 469-210 469-469 469z m94-660c0-7-4-14-11-19 0 0 0 0 0 0-13-11-35-11-49 0l-241 191c0 0-1 0-1 0-14 11-14 28 0 39l242 191c14 11 36 11 49 0l0 0c7-5 11-12 11-20l0-382z" horiz-adv-x="1000" />

<glyph glyph-name="glyph-173" unicode="&#xe8ac;" d="M531 788c-259 0-468-210-468-469s209-469 468-469 469 210 469 469-210 469-469 469z m209-488l-242-191c-14-11-36-11-50 0l1 0c-7 5-11 12-11 19l0 382c0 8 4 15 10 20 0 0 0 0 0 0 14 11 36 11 50 0l241-191c0 0 0 0 1 0 13-11 13-28 0-39z" horiz-adv-x="1000" />

<glyph glyph-name="glyph-174" unicode="&#xe8ad;" d="M531 788c-259 0-468-210-468-469s209-469 468-469 469 210 469 469-210 469-469 469z m250-500l-500 0c-17 0-31 14-31 31 0 17 14 31 31 31l500 0c18 0 32-14 32-31 0-17-14-31-32-31z" horiz-adv-x="1000" />

<glyph glyph-name="glyph-175" unicode="&#xe8ae;" d="M531 788c-259 0-468-210-468-469s209-469 468-469 469 210 469 469-210 469-469 469z m250-500l-218 0 0-219c0-17-14-31-32-31s-31 14-31 31l0 219-219 0c-17 0-31 14-31 31 0 17 14 31 31 31l219 0 0 219c0 17 14 31 31 31s32-14 32-31l0-219 218 0c18 0 32-14 32-31 0-17-14-31-32-31z" horiz-adv-x="1000" />

<glyph glyph-name="glyph-176" unicode="&#xe8af;" d="M531 788c-259 0-468-210-468-469s209-469 468-469 469 210 469 469-210 469-469 469z m217-296l-174-174 154-172c13-12 13-32 0-44s-32-13-44 0l-154 171-172-171c-12-13-32-13-44 0-12 12-12 32 0 44l174 174-154 172c-12 12-12 32 0 44 12 12 32 12 44 0l154-172 172 172c12 12 32 12 44 0 13-12 13-32 0-44z" horiz-adv-x="1000" />

<glyph glyph-name="glyph-177" unicode="&#xe8b0;" d="M503 850c-276 0-500-224-500-500s224-500 500-500 500 224 500 500-224 500-500 500z m231-362l-239-366c0 0 0 0 0 0-2-2-2-4-4-6-2-2-5-3-7-5-1-1-2-1-2-1-4-3-8-5-13-6-1 0-2 0-4-1-3 0-7 0-10 0-3 0-5 1-8 1-2 1-4 2-7 3-2 1-4 1-6 3-1 1-2 2-3 3-1 0-1 1-2 1l-139 129c-18 16-19 44-3 62s44 19 62 2l101-93 211 322c13 20 40 26 61 13 20-13 26-40 12-61z" horiz-adv-x="1000" />

<glyph glyph-name="glyph-178" unicode="&#xe8b1;" d="M594 850c-225 0-406-182-406-406 0-97 33-185 90-255l-265-265c-17-17-17-44 0-61 17-17 44-17 61 0l265 265c70-57 158-90 255-90 224 0 406 181 406 406s-182 406-406 406z m187-437l-375 0c-17 0-31 14-31 31 0 17 14 31 31 31l375 0c18 0 32-14 32-31 0-17-14-31-32-31z" horiz-adv-x="1000" />

<glyph glyph-name="glyph-179" unicode="&#xe8b2;" d="M594 850c-225 0-406-182-406-406 0-97 33-185 90-255l-265-265c-17-17-17-44 0-61 17-17 44-17 61 0l265 265c70-57 158-90 255-90 224 0 406 181 406 406s-182 406-406 406z m187-437l-156 0 0-157c0-17-14-31-31-31-17 0-31 14-31 31l0 157-157 0c-17 0-31 14-31 31 0 17 14 31 31 31l157 0 0 156c0 18 14 32 31 32 17 0 31-14 31-32l0-156 156 0c18 0 32-14 32-31 0-17-14-31-32-31z" horiz-adv-x="1000" />

<glyph glyph-name="glyph-180" unicode="&#xe8b3;" d="M500 850c-276 0-500-224-500-500s224-500 500-500 500 224 500 500-224 500-500 500z m188-625c0-34-28-62-63-62l-250 0c-34 0-62 28-62 62l0 250c0 35 28 63 62 63l250 0c35 0 63-28 63-63l0-250z" horiz-adv-x="1000" />

<glyph glyph-name="glyph-181" unicode="&#xe8b4;" d="M938 788l-813 0c-34 0-62-28-62-63l0-813c0-34 28-62 62-62l813 0c34 0 62 28 62 62l0 813c0 35-28 63-62 63z m-157-688l-500 0c-17 0-31 14-31 31 0 18 14 32 31 32l500 0c18 0 32-14 32-32 0-17-14-31-32-31z m0 188l-500 0c-17 0-31 14-31 31 0 17 14 31 31 31l500 0c18 0 32-14 32-31 0-17-14-31-32-31z m0 187l-500 0c-17 0-31 14-31 31 0 18 14 32 31 32l500 0c18 0 32-14 32-32 0-17-14-31-32-31z" horiz-adv-x="1000" />

<glyph glyph-name="glyph-182" unicode="&#xe8b5;" d="M531 788c-259 0-468-210-468-469s209-469 468-469 469 210 469 469-210 469-469 469z m250-688l-500 0c-17 0-31 14-31 31 0 18 14 32 31 32l500 0c18 0 32-14 32-32 0-17-14-31-32-31z m0 188l-500 0c-17 0-31 14-31 31 0 17 14 31 31 31l500 0c18 0 32-14 32-31 0-17-14-31-32-31z m0 187l-500 0c-17 0-31 14-31 31 0 18 14 32 31 32l500 0c18 0 32-14 32-32 0-17-14-31-32-31z" horiz-adv-x="1000" />

<glyph glyph-name="glyph-183" unicode="&#xe8b6;" d="M125-150l753 0c34 0 62 28 62 62l0 876c0 34-28 62-62 62l-753 0c-34 0-62-28-62-62l0-876c0-34 28-62 62-62z m344 813l252 0c18 0 32-14 32-32 0-17-14-31-32-31l-252 0c-17 0-31 14-31 31 0 18 14 32 31 32z m-188-188l440 0c18 0 32-14 32-31 0-17-14-31-32-31l-440 0c-17 0-31 14-31 31 0 17 14 31 31 31z m0-187l440 0c18 0 32-14 32-32 0-17-14-31-32-31l-440 0c-17 0-31 14-31 31 0 18 14 32 31 32z m0-188l440 0c18 0 32-14 32-31 0-17-14-31-32-31l-440 0c-17 0-31 14-31 31 0 17 14 31 31 31z" horiz-adv-x="1000" />

<glyph glyph-name="glyph-184" unicode="&#xe8b7;" d="M125-25l63 0 0-63c0-34 28-62 62-62l625 0c35 0 63 28 63 62l0 751c0 34-28 62-63 62l-62 0 0 63c0 34-28 62-63 62l-625 0c-34 0-62-28-62-62l0-750c0-35 28-63 62-63z m750 688l0-751-625 0 0 63 500 0c35 0 63 28 63 63l0 625 62 0z m-219 62c18 0 32-14 32-31 0-17-14-31-32-31l-252 0c-18 0-32 14-32 31 0 17 14 31 32 31l252 0z m-440-187l440 0c18 0 32-14 32-32 0-17-14-31-32-31l-440 0c-17 0-31 14-31 31 0 18 14 32 31 32z m0-188l440 0c18 0 32-14 32-31 0-17-14-31-32-31l-440 0c-17 0-31 14-31 31 0 17 14 31 31 31z m0-187l440 0c18 0 32-14 32-32 0-17-14-31-32-31l-440 0c-17 0-31 14-31 31 0 18 14 32 31 32z" horiz-adv-x="1000" />

<glyph glyph-name="glyph-185" unicode="&#xe8b8;" d="M938 850l-875 0c-35 0-63-28-63-62l0-876c0-34 28-62 63-62l875 0c34 0 62 28 62 62l0 876c0 34-28 62-62 62z m-764-287c-31 31-31 82 0 113 31 31 82 31 113 0l82-83-112-112-83 82z m470-470l-321 321 113 113 321-321 56-168-169 55z" horiz-adv-x="1000" />

<glyph glyph-name="glyph-186" unicode="&#xe8b9;" d="M938 663l-313 0c-34 0-62-28-62-63 0 0-9-57-63-62l-437 0c-35 0-63-27-63-62l0-564c0-34 28-62 63-62l875 0c34 0 62 28 62 62l0 501 0 63 0 124c0 35-28 63-62 63z" horiz-adv-x="1000" />

<glyph glyph-name="glyph-187" unicode="&#xe8ba;" d="M938 725l-313 0c-34 0-62-28-62-62 0 0-9-58-63-63l-437 0c-35 0-63-27-63-61l0-64 1000 0 0 64 0 124c0 34-28 62-62 62z m-938-813c0-34 28-62 63-62l875 0c34 0 62 28 62 62l0 501-1000 0 0-501z" horiz-adv-x="1000" />

<glyph glyph-name="glyph-188" unicode="&#xe8bb;" d="M938 663l-250 0c-35 0-63-28-63-63 0 0-8-57-62-62l-438 0c-34 0-62-28-62-63l0-563c0-34 28-62 62-62l813 0c34 0 62 28 62 62l0 688c0 35-28 63-62 63z m-219-500l-156 0 0-157c0-17-14-31-32-31s-31 14-31 31l0 157-156 0c-17 0-31 14-31 31 0 17 14 31 31 31l156 0 0 156c0 18 14 32 31 32s32-14 32-32l0-156 156 0c17 0 31-14 31-31 0-17-14-31-31-31z" horiz-adv-x="1000" />

<glyph glyph-name="glyph-189" unicode="&#xe8bc;" d="M938 725l-313 0c-34 0-62-28-62-62 0 0-9-58-63-63l-437 0c-35 0-63-27-63-61l0-564c0-35 28-63 63-63l375 0 0 313-133 0 195 250 195-250-132 0 0-313 375 0c34 0 62 28 62 63l0 500 0 64 0 124c0 34-28 62-62 62z" horiz-adv-x="1000" />

<glyph glyph-name="glyph-190" unicode="&#xe8bd;" d="M938 725l-313 0c-34 0-62-28-62-62 0 0-9-58-63-63l-437 0c-35 0-63-27-63-61l0-564c0-35 28-63 63-63l875 0c34 0 62 28 62 63l0 500 0 64 0 124c0 34-28 62-62 62z m-438-812l-195 250 133 0 0 250c0 34 28 62 62 62s63-28 63-62l0-250 132 0-195-250z" horiz-adv-x="1000" />

<glyph glyph-name="glyph-191" unicode="&#xe8be;" d="M500 850c-276 0-500-224-500-500s224-500 500-500 500 224 500 500-224 500-500 500z m-62-437c0 34 28 62 62 62s63-28 63-62l0-313c0-34-28-62-63-62s-62 28-62 62l0 313z m62 124c-34 0-62 28-62 62 0 35 28 63 62 63s63-28 63-63c0-34-28-62-63-62z" horiz-adv-x="1000" />

<glyph glyph-name="glyph-192" unicode="&#xe8bf;" d="M500-150c276 0 500 224 500 500s-224 500-500 500-500-224-500-500 224-500 500-500z m63 438c0-35-28-63-63-63s-62 28-62 63l0 312c0 35 28 63 62 63s63-28 63-63l0-312z m-63-124c35 0 63-28 63-63 0-34-28-62-63-62s-62 28-62 62c0 35 28 63 62 63z" horiz-adv-x="1000" />

<glyph glyph-name="glyph-193" unicode="&#xe8c0;" d="M725 832c-11 11-27 18-44 18l-362 0c-17 0-33-7-44-18l-257-257c-11-11-18-27-18-44l0-362c0-17 7-33 18-44l257-257c11-11 27-18 44-18l362 0c17 0 33 7 44 18l257 257c11 11 18 27 18 44l0 362c0 17-7 33-18 44l-257 257z m-225-607c-34 0-62 28-62 63l0 375c0 34 28 62 62 62s63-28 63-62l0-375c0-35-28-63-63-63z m63-187c0-35-28-63-63-63s-62 28-62 63c0 34 28 62 62 62s63-28 63-62z" horiz-adv-x="1000" />

<glyph glyph-name="glyph-194" unicode="&#xe8c1;" d="M64-150l870 0c22 0 42 11 53 30 12 19 12 43 2 62l-434 812c-11 21-32 34-55 34l0 0c-23 0-44-13-55-33l-436-813c-10-19-9-43 2-62 11-18 32-30 53-30z m436 250c35 0 63-28 63-62 0-35-28-63-63-63s-62 28-62 63c0 34 28 62 62 62z m-62 124l0 250c0 35 28 63 62 63s63-28 63-63l0-250c0-34-28-62-63-62s-62 28-62 62z" horiz-adv-x="1000" />

<glyph glyph-name="glyph-195" unicode="&#xe8c2;" d="M500-150c276 0 500 224 500 500s-224 500-500 500-500-224-500-500 224-500 500-500z m0 875c124 0 250-71 250-230 0-93-46-166-136-215-27-15-51-43-51-55 0-34-28-62-63-62s-62 28-62 62c0 79 72 141 115 164 63 35 72 73 72 106 0 91-78 105-125 105-60 0-125-39-125-126 0-35-28-63-62-63s-63 28-63 63c0 163 129 251 250 251z m0-753c-36 0-64 29-64 65s28 64 64 64 64-29 64-64-28-65-64-65z" horiz-adv-x="1000" />

<glyph glyph-name="glyph-196" unicode="&#xe8c3;" d="M159 85c-19-47-50-109-102-173 100 0 228 14 327 74 37-7 76-11 116-11 276 0 500 182 500 406s-224 407-500 407-500-182-500-407c0-117 61-222 159-296z" horiz-adv-x="1000" />

<glyph glyph-name="glyph-197" unicode="&#xe8c4;" d="M872 482c6-25 9-51 9-77 0-201-171-370-397-406 48-19 101-30 158-30 54 0 105 10 150 27 58-20 122-25 174-25-27 33-46 65-60 93 58 51 94 120 94 195 0 90-50 169-128 223z m-85-77c0 177-176 320-393 320s-394-143-394-320c0-92 48-175 125-233-14-37-39-86-80-136 78 0 180 11 257 58 30-5 60-9 92-9 217 1 393 144 393 320z" horiz-adv-x="1000" />

<glyph glyph-name="glyph-198" unicode="&#xe8c5;" d="M63 92l143 0c11-11 272-231 272-231 16-9 29-12 40-11 23 2 40 22 45 42 0 2 0 914 0 916-5 20-22 40-45 42-11 1-24-2-40-11 0 0-261-228-272-239l-143 0c-35 0-63-28-63-62l0-8 0-367 0-8c0-35 28-63 63-63z m926 420c-15 15-39 15-54 0l-108-108-108 108c-15 15-39 15-54 0-15-15-15-39 0-54l108-108-108-108c-15-15-15-39 0-54 15-15 39-15 54 0l108 108 108-108c15-15 39-15 54 0 15 15 15 39 0 54l-108 108 108 108c15 15 15 39 0 54z" horiz-adv-x="1000" />

<glyph glyph-name="glyph-199" unicode="&#xe8c6;" d="M643 850c-11 1-24-2-40-11 0 0-261-228-272-239l-143 0c-35 0-63-28-63-62l0-8 0-367 0-8c0-35 28-63 63-63l143 0c11-11 272-231 272-231 16-9 29-12 40-11 23 2 40 22 45 42 0 2 0 914 0 916-5 20-22 40-45 42z m141-609c-16-8-22-27-14-42 5-11 16-17 28-17 5 0 9 1 14 3 63 32 102 95 102 165s-39 133-102 165c-16 8-34 2-42-14-8-15-2-34 14-42 42-21 68-63 68-109s-26-88-68-109z" horiz-adv-x="1000" />

<glyph glyph-name="glyph-200" unicode="&#xe8c7;" d="M63 92l143 0c11-11 272-231 272-231 16-9 29-12 40-11 23 2 40 22 45 42 0 2 0 914 0 916-5 20-22 40-45 42-11 1-24-2-40-11 0 0-261-228-272-239l-143 0c-35 0-63-28-63-62l0-8 0-367 0-8c0-35 28-63 63-63z m596 149c-16-8-22-27-14-42 5-11 16-17 28-17 5 0 9 1 14 3 63 32 102 95 102 165s-39 133-102 165c-16 8-34 2-42-14-8-15-2-34 14-42 42-21 68-63 68-109s-26-88-68-109z m-43-250c3-15 16-25 30-25 2 0 4 0 7 1 183 35 316 197 316 383s-133 348-317 383c-16 4-33-7-36-24-3-17 8-34 25-37 154-30 265-165 265-322s-111-292-265-322c-17-3-28-20-25-37z" horiz-adv-x="1000" />

<glyph glyph-name="glyph-201" unicode="&#xe8c8;" d="M500 850c-276 0-500-224-500-500s224-500 500-500 500 224 500 500-224 500-500 500z m251-491c-4-64-33-160-149-253-5-5-12-7-18-7-9 0-18 4-24 12-11 14-8 34 5 44 94 76 120 151 125 202-14-8-29-13-45-13-51 0-92 43-92 96 0 53 41 96 92 96 12 0 22-3 32-7l0 0c0 0 4-1 10-5 1 0 1 0 1 0 1 0 1 0 1 0 4-3 9-6 14-11 3-2 5-4 7-6 23-23 47-66 41-148z m-409-15c-51 0-92 43-92 96 0 53 41 96 92 96 12 0 22-3 32-7l0 0c0 0 4-1 10-5 1 0 1 0 1 0 1 0 1 0 1 0 4-3 9-6 14-11 3-2 5-4 7-6 23-23 47-66 41-148-4-64-33-160-149-253-5-5-12-7-18-7-9 0-18 4-24 12-11 14-8 34 5 44 94 76 120 151 125 202-14-8-29-13-45-13z" horiz-adv-x="1000" />

<glyph glyph-name="glyph-202" unicode="&#xe8c9;" d="M203 647c-182-183-182-478 0-660s478-183 660 0c183 182 183 477 0 660-182 182-477 182-660 0z m578-359l-248 0c-1 0-1-1-2-1-17 0-31 14-31 32l0 312c0 18 14 32 31 32s32-14 32-32l0-281 218 0c18 0 32-14 32-31 0-17-14-31-32-31z" horiz-adv-x="1000" />

<glyph glyph-name="glyph-203" unicode="&#xe8ca;" d="M500 850c-175 0-317-142-317-317l0-58-58 0c-34 0-62-28-62-62l0-501c0-34 28-62 62-62l750 0c35 0 63 28 63 62l0 501c0 34-28 62-63 62l-58 0 0 58c0 175-142 317-317 317z m-192-317c0 106 86 192 192 192s192-86 192-192l0-58-384 0 0 58z m192-495c-69 0-125 55-125 125 0 69 56 125 125 125s125-56 125-125c0-70-56-125-125-125z" horiz-adv-x="1000" />

<glyph glyph-name="glyph-204" unicode="&#xe8cb;" d="M813 475l-568 0 0 58c0 106 86 192 193 192 69 0 130-38 164-94 0 1 1 1 1 1 11-16 29-27 50-27 35 0 63 28 63 62 0 9-2 17-5 24 0 1 0 1-1 2-2 6-6 11-11 16-57 85-152 141-261 141-176 0-318-142-318-317l0-58-57 0c-35 0-63-28-63-62l0-501c0-34 28-62 63-62l750 0c34 0 62 28 62 62l0 501c0 34-28 62-62 62z m-375-437c-70 0-125 55-125 125s55 125 125 125 125-56 125-125-56-125-125-125z" horiz-adv-x="1000" />

<glyph glyph-name="glyph-205" unicode="&#xe8cc;" d="M969 850l-125 0c-8 0-15-3-21-8l-431-378c-23 5-57 11-79 11-173 0-313-140-313-312s140-313 313-313 312 140 312 313c0 51-10 85-21 114l107 36c13 4 21 16 21 30l-3 119 120 8c16 1 28 14 29 30l4 143 94 20c14 3 24 16 24 31l0 125c0 17-14 31-31 31z m-750-687c37 0 70-23 85-54 5-12 9-26 9-40 0-52-42-94-94-94s-94 42-94 94 42 94 94 94z" horiz-adv-x="1000" />

<glyph glyph-name="glyph-206" unicode="&#xe8cd;" d="M813 350c-3 0-5-1-7-1 4 21 7 42 7 64 0 172-140 312-313 312s-312-140-312-312c0-2 0-3 0-4-106-15-188-105-188-215 0-110 82-201 188-216l0-3 625 0c103 0 187 84 187 188s-84 187-187 187z" horiz-adv-x="1000" />

<glyph glyph-name="glyph-207" unicode="&#xe8ce;" d="M813 350c-3 0-5-1-7-1 4 21 7 42 7 64 0 172-140 312-313 312s-312-140-312-312c0-2 0-3 0-4-106-15-188-105-188-215 0-121 98-219 219-219l157 0c34 0 62 28 62 62l0 188-133 0 195 250 195-250-132 0 0-188c0-34 27-62 62-62l188 0c103 0 187 84 187 188s-84 187-187 187z" horiz-adv-x="1000" />

<glyph glyph-name="glyph-208" unicode="&#xe8cf;" d="M813 350c-3 0-5-1-7-1 4 21 7 42 7 64 0 172-140 312-313 312s-312-140-312-312c0-2 0-3 0-4-106-15-188-105-188-215 0-110 82-201 188-216l0-3 312 0-195 250 133 0 0 250c0 35 28 63 62 63s63-28 63-63l0-250 132 0-195-250 313 0c103 0 187 84 187 188s-84 187-187 187z" horiz-adv-x="1000" />

<glyph glyph-name="glyph-209" unicode="&#xe8d0;" d="M849 345c5 12 8 24 12 37 0 2 1 4 1 6 3 11 5 23 7 35 0 3 1 6 1 8 2 15 3 29 3 44 0 207-168 375-375 375s-375-168-375-375c0-15 1-29 3-44 0-2 0-5 1-8 2-12 4-24 6-35 1-2 2-4 2-6 3-13 7-25 11-37 1-1 1-2 2-3 5-13 10-26 16-38 1 0 1-1 1-1 7-13 14-25 22-37 0 0 1-1 1-1 8-11 16-23 25-33 1-1 2-2 2-3 9-9 17-18 27-27 2-2 4-4 6-6 3-2 5-5 8-7 2-2 4-3 6-4 6-5 12-11 18-15 3-2 4-4 7-6 43-36 22-64 70-64 6 0 219 0 282 0 48 0 27 28 70 64 2 2 4 4 7 6 6 4 12 10 18 15 2 1 4 2 6 4 3 2 5 5 8 7 2 2 4 4 6 6 9 9 18 18 26 27 1 1 2 2 3 3 9 10 17 22 25 33 0 0 1 1 1 1 8 12 15 24 21 37 1 0 1 1 1 1 7 12 12 25 17 38 0 1 1 2 1 3z m-130 127c-17 0-31 14-31 31 0 96-86 160-157 160-17 0-31 14-31 31s14 31 31 31c108 0 219-79 219-222 0-17-14-31-31-31z m-225-560l-69 0-68 0 112-57c9-5 19-7 29-7 9 0 19 2 28 7l114 57-69 0-69 0-8 0z m194 94c0 18-14 32-32 32l-312 0c-17 0-31-14-31-32 0-17 14-31 31-31l312 0c18 0 32 14 32 31z" horiz-adv-x="1000" />

<glyph glyph-name="glyph-210" unicode="&#xe8d1;" d="M938 600l-373 0 0-187 435 0 0 125c0 34-28 62-62 62z m-875 0c-35 0-63-28-63-62l0-125 438 0 0 187-375 0z m0-250l0-438c0-34 28-62 62-62l313 0 0 500-375 0z m812-500c35 0 63 28 63 62l0 438-373 0 0-500 310 0z m-375 813l0 0c0 0 0 0 0 0l65 0c55 0 134 0 185 0 86 0 125 42 125 93s-39 94-125 94c-81 0-144-36-187-79-19 12-41 18-65 18-22 0-43-6-62-16-43 41-106 77-186 77-86 0-125-42-125-94s39-93 125-93c52 0 132 0 188 0l62 0c0 0 0 0 0 0z m313 93c0-26-34-31-63-31l-142 0c0 1-1 2-1 3 31 31 80 60 143 60 29 0 63-6 63-32z m-625 0c0 26 34 32 62 32 62 0 109-28 141-58-1-2-2-3-3-5l-138 0c-28 0-62 5-62 31z" horiz-adv-x="1000" />

<glyph glyph-name="glyph-211" unicode="&#xe8d2;" d="M52 295l448 389 448-389c6-5 14-7 21-7 9 0 17 3 23 10 12 13 10 33-3 44l-468 407c-12 10-30 10-41 0l-167-145 0 59c0 34-28 62-63 62s-62-28-62-62l0-167-177-154c-13-11-15-31-3-44 11-13 31-14 44-3z m323-132l250 0 0-313 188 0c34 0 62 28 62 62l0 307c0 19-8 36-23 48l-312 256c-12 10-26 15-40 15-14 0-28-5-40-15l-312-256c-15-12-23-29-23-48l0-307c0-34 28-62 63-62l187 0 0 313z" horiz-adv-x="1000" />

<glyph glyph-name="glyph-212" unicode="&#xe8d3;" d="M938 538l-125 0c0 0-37 0-63 62-13 32-28 63-62 63l-250 0c-35 0-50-31-63-63-25-62-62-62-62-62l-63 0c0 34-28 62-62 62l-63 0c-34 0-62-28-62-62-35 0-63-28-63-63l0-125 347 0c44 74 123 125 216 125s172-51 215-125l222 0 0 125c0 35-28 63-62 63z m-719-125l-125 0c-17 0-31 14-31 31 0 17 14 31 31 31l31 0 63 0 31 0c17 0 31-14 31-31 0-17-14-31-31-31z m156-188a188 188 0 1 1 375 0 188 188 0 1 1-375 0z m438 0c0-138-112-250-250-250-139 0-250 112-250 250 0 22 3 42 8 63l-321 0 0-313c0-35 28-63 63-63l875 0c34 0 62 28 62 63l0 313-196 0c5-21 9-41 9-63z" horiz-adv-x="1000" />

<glyph glyph-name="glyph-213" unicode="&#xe8d4;" d="M938 600l-875 0c-35 0-63-28-63-62l0-105 500-200 500 200 0 105c0 34-28 62-62 62z m-938-269l0-419c0-34 28-62 63-62l875 0c34 0 62 28 62 62l0 419-500-200-500 200z" horiz-adv-x="1000" />

<glyph glyph-name="glyph-214" unicode="&#xe8d5;" d="M678 475l-119 334c-9 24-33 41-59 41s-50-17-59-41l-119-334 356 0z m156-437l-89 250-490 0-89-250z m-771-63c-35 0-63-28-63-63 0-34 28-62 63-62l125 0 625 0 125 0c34 0 62 28 62 62 0 35-28 63-62 63l-875 0z" horiz-adv-x="1000" />

<glyph glyph-name="glyph-215" unicode="&#xe8d6;" d="M125 663l0-751c0-25 15-48 39-57 7-3 15-5 24-5 16 0 32 6 44 18l268 269 268-269c12-12 28-18 45-18 8 0 16 2 23 5 24 9 39 32 39 57l0 751-750 0z m750 62l0 63c0 34-28 62-62 62l-625 0c-35 0-63-28-63-62l0-63 750 0z" horiz-adv-x="1000" />

<glyph glyph-name="glyph-216" unicode="&#xe8d7;" d="M188-150l625 0c34 0 62 28 62 62l0 688c0 35-28 63-62 63l-126 0c-1 103-84 187-187 187s-186-84-187-187l-125 0c-35 0-63-28-63-63l0-688c0-34 28-62 63-62z m406 625l-188 0c-17 0-31 14-31 31 0 18 14 32 31 32l188 0c17 0 31-14 31-32 0-17-14-31-31-31z m-94 313c68 0 123-56 125-125l-250 0c2 69 57 125 125 125z" horiz-adv-x="1000" />

<glyph glyph-name="glyph-217" unicode="&#xe8d8;" d="M938 600l-750 0c-5 0-10-2-14-3l-24 104c-4 14-16 24-31 24l-90 0c-17 0-31-14-31-31s14-31 31-31l65 0 39-166 55-272c0-2 1-4 1-6l-32-143c-2-10 0-19 6-27 6-7 15-11 25-11l709 0c17 0 31 14 31 31s-14 31-31 31l-670 0 14 64c3 0 6-1 9-1l570 0c34 0 55 6 72 46l101 312c18 56-21 79-55 79z m-750-688a63 63 0 1 1 125 0 63 63 0 1 1-125 0z m562 0a63 63 0 1 1 125 0 63 63 0 1 1-125 0z" horiz-adv-x="1000" />

<glyph glyph-name="glyph-218" unicode="&#xe8d9;" d="M908 787c0 0-1 0-2 0 0 0-1 0-1 0l-393 0c-10 0-31-15-34-18l-460-460c-24-24-24-63 0-88l353-353c12-12 28-18 44-18 16 0 32 6 44 18l460 460c3 3 19 22 19 34l0 394c0 18-13 31-30 31z m-64-124c-17 0-31 14-31 31 0 17 14 31 31 31s31-14 31-31c0-17-14-31-31-31z" horiz-adv-x="1000" />

<glyph glyph-name="glyph-219" unicode="&#xe8da;" d="M908 850c0 0-1 0-2 0 0 0-1 0-1 0l-330 0c-10 0-32-15-35-18l-397-398c-25-24-25-64 0-88l49-50-49-49c-25-25-25-64 0-89l290-290c12-12 28-18 44-18s32 6 44 18l398 398c3 3 19 22 19 34l0 187 0 144 0 188c0 17-13 31-30 31z m-64-62c17 0 31-14 31-31s-14-32-31-32-31 14-31 32 14 31 31 31z m31-478l-398-398-290 290 49 50 197-197c12-12 28-18 44-18s32 6 44 18l354 354 0-99c0 0 0 0 0 0 0 0 0 0 0 0z" horiz-adv-x="1000" />

<glyph glyph-name="glyph-220" unicode="&#xe8db;" d="M813 788l-125 0c0 34-28 62-63 62l-187 0c-35 0-63-28-63-62l-125 0c-34 0-62-28-62-63l687 0c0 35-28 63-62 63z m-625-876c0-34 28-62 62-62l563 0c34 0 62 28 62 62l0 751-687 0 0-751z m500 594c0 18 14 32 31 32s31-14 31-32l0-500c0-17-14-31-31-31s-31 14-31 31l0 500z m-188 0c0 18 14 32 31 32s32-14 32-32l0-500c0-17-14-31-32-31s-31 14-31 31l0 500z m-187 0c0 18 14 32 31 32s31-14 31-32l0-500c0-17-14-31-31-31s-31 14-31 31l0 500z" horiz-adv-x="1000" />

<glyph glyph-name="glyph-221" unicode="&#xe8dc;" d="M830 185c7 12 6 26-3 36l-520 618c-8 10-22 14-34 9-13-4-21-16-21-29l0-816c0-13 9-25 21-29 4-1 7-2 10-2 10 0 19 5 25 13l140 188 97-277c12-36 51-55 87-42s54 51 42 87l-96 272 219-43c13-2 26 4 33 15z" horiz-adv-x="1000" />

<glyph glyph-name="glyph-222" unicode="&#xe8dd;" d="M438 44l0-132-94 0c-17 0-31-14-31-31 0-17 14-31 31-31l155 0 2 0 155 0c18 0 32 14 32 31 0 17-14 31-32 31l-93 0 0 132c130 26 250 131 250 306l0 94c0 17-14 31-32 31s-31-14-31-31l0-94c0-164-126-250-250-250-120 0-250 78-250 250l0 94c0 17-14 31-31 31s-31-14-31-31l0-94c0-177 117-282 250-306z m62 181c69 0 125 56 125 125l0 375c0 69-56 125-125 125s-125-56-125-125l0-375c0-69 56-125 125-125z" horiz-adv-x="1000" />

<glyph glyph-name="glyph-223" unicode="&#xe8de;" d="M500 850c-276 0-500-224-500-500s224-500 500-500 500 224 500 500-224 500-500 500z m245-298l-72-116-49-78c0-3 1-5 1-8 0-69-56-125-125-125-3 0-5 1-8 1l-78-49-116-72c-5-3-11-5-17-5-8 0-16 3-22 9-10 10-12 26-4 39l72 116 49 78c0 3-1 5-1 8 0 69 56 125 125 125 3 0 5-1 8-1l78 49 116 72c12 8 29 6 39-4 10-10 12-26 4-39z m-307-202a63 63 0 1 1 125 0 63 63 0 1 1-125 0z" horiz-adv-x="1000" />

<glyph glyph-name="glyph-224" unicode="&#xe8df;" d="M477-133c6-6 11-10 15-12 1 0 1 0 1 0 3-2 6-3 10-3 3 0 6 1 9 3 0 0 1 0 1 0 4 2 10 6 15 12 0 0 290 316 319 590 2 14 3 28 3 43 0 193-156 350-350 350s-350-157-350-350c0-15 1-30 3-44 30-274 324-589 324-589z m23 858c124 0 225-101 225-225 0-125-101-226-225-226s-225 101-225 226c0 124 101 225 225 225z" horiz-adv-x="1000" />

<glyph glyph-name="glyph-225" unicode="&#xe8e0;" d="M250 240c0-48 121-73 250-77 0 0 0 0 0 0l0-188c0-35 14-125 31-125s32 90 32 125l0 188c0 0-1 0-1 0 130 4 251 29 251 77 0 51-47 88-125 108l0 324c78 27 125 70 125 100 0 104-563 104-563 0 0-33 46-75 125-101l0-323c-79-20-125-57-125-108z" horiz-adv-x="1000" />

<glyph glyph-name="glyph-226" unicode="&#xe8e1;" d="M315 669l-252 119 0-750 252-119z m63-750l248 113 0 750-248-112z m311 111l249-118 0 751-249 117z" horiz-adv-x="1000" />

<glyph glyph-name="glyph-227" unicode="&#xe8e2;" d="M875 725c-18 39-49 63-84 63l-588 0c-34 0-62-24-78-63l-125-500 0-1 0-31 0-31 0-34 0-1 0-184c0-18 14-32 31-32l938 0c17 0 31 14 31 32l0 187 0 1 0 31 0 31 0 28-1 3-124 501z m-691-21c3 7 10 21 19 21l588 0c9 0 18-9 25-22l110-448c0 0 0 0 0 0 0-17-14-31-31-31 0 0 0 0 0 0l-82 0-157 0c-17 0-31-14-31-31l0-62c0-17-14-31-31-31-1 0-1-1-2-1l-185 0c0 0 0 1-1 1-17 0-31 14-31 31l0 62c0 17-14 31-31 31l-219 0-20 0c0 0 0 0 0 0-17 0-32 14-32 31 0 1 0 0 0 1l111 448z" horiz-adv-x="1000" />

<glyph glyph-name="glyph-228" unicode="&#xe8e3;" d="M938 538l-250 0 0 62c0 35-28 63-63 63l-250 0c-34 0-62-28-62-63l0-62-250 0c-35 0-63-28-63-63l0-125 375 0 250 0 375 0 0 125c0 35-28 63-62 63z m-563 62l250 0 0-62-250 0 0 62z m0-312l250 0 0-63-250 0z m313-63c0-34-28-62-63-62l-250 0c-34 0-62 28-62 62l0 63-313 0 0-376c0-34 28-62 63-62l875 0c34 0 62 28 62 62l0 376-312 0 0-63z" horiz-adv-x="1000" />

<glyph glyph-name="glyph-229" unicode="&#xe8e4;" d="M158-150l28 0 375 0 64 0 22 0 102 0c34 0 62 28 62 62l0 135 0 22 0 500c0 17-14 31-31 31 0 0 0 0 0 0l-530 0c-2 0-5 0-8 0l-84 0c-53 0-95 40-95 92 0 53 41 96 93 96l125 0 344 0 250 0 0-719c0-17 13-31 30-31s33 14 33 31l0 750c0 17-16 31-33 31l-218 0-406 0-123 0c-87 0-156-69-158-155l0 0 0-130 0-90 0-342 0-78 0-47c0-87 71-158 158-158z" horiz-adv-x="1000" />

<glyph glyph-name="glyph-230" unicode="&#xe8e5;" d="M63 850c-35 0-63-28-63-62l0-876c0-34 28-62 63-62l62 0 0 1000-62 0z m750 0l-625 0 0-1000 625 0c34 0 62 28 62 62l0 876c0 34-28 62-62 62z m-285-241c52 0 94-42 94-94 0-53-42-95-94-95-52 0-95 42-95 95 0 52 43 94 95 94z m-153-434c0 114 69 207 155 207s155-93 155-207-310-115-310 0z m563 613l62 0 0-188-62 0z m0-250l62 0 0-188-62 0z m0-250l62 0 0-188-62 0z" horiz-adv-x="1000" />

<glyph glyph-name="glyph-231" unicode="&#xe8e6;" d="M938 725l-875 0c-35 0-63-28-63-62l0-125 1000 0 0 125c0 34-28 62-62 62z m-875-813c0-34 28-62 62-62l750 0c35 0 63 28 63 62l0 563-875 0 0-563z m312 438l250 0c35 0 63-28 63-62 0-35-28-63-63-63l-250 0c-34 0-62 28-62 63 0 34 28 62 62 62z" horiz-adv-x="1000" />

<glyph glyph-name="glyph-232" unicode="&#xe8e7;" d="M1000 418c-3 153-128 290-281 290-89 0-167-47-219-115-52 68-130 115-219 115-153 0-278-137-280-290l-1 0c0-1 0-2 0-3 0-1 0-1 0-2 0-4 1-8 1-12 14-391 495-551 495-551s488 160 503 551c0 4 1 7 1 12 0 1 0 1 0 2 0 1 0 2 0 3l0 0z" horiz-adv-x="1000" />

<glyph glyph-name="glyph-233" unicode="&#xe8e8;" d="M688 663c0 100-88 187-188 187s-187-87-187-187c0-101 87-188 187-188s188 87 188 188z m-188-250c-164 0-312-178-312-398s625-220 625 0-149 398-313 398z" horiz-adv-x="1000" />

</font>
</defs>
</svg>
